  0
SECTION
  2
HEADER
  9
$ACADVER
  1
AC1014
  9
$ACADMAINTVER
 70
     0
  9
$DWGCODEPAGE
  3
ANSI_1252
  9
$INSBASE
 10
93.894301
 20
236.06014
 30
0.0
  9
$EXTMIN
 10
-0.445283
 20
-7.422315
 30
0.0
  9
$EXTMAX
 10
82.982644
 20
69.869707
 30
0.0
  9
$LIMMIN
 10
0.0
 20
0.0
  9
$LIMMAX
 10
210.0
 20
297.0
  9
$ORTHOMODE
 70
     0
  9
$REGENMODE
 70
     1
  9
$FILLMODE
 70
     1
  9
$QTEXTMODE
 70
     0
  9
$MIRRTEXT
 70
     0
  9
$DRAGMODE
 70
     1
  9
$LTSCALE
 40
7.0
  9
$OSMODE
 70
  4095
  9
$ATTMODE
 70
     1
  9
$TEXTSIZE
 40
2.5
  9
$TRACEWID
 40
0.05
  9
$TEXTSTYLE
  7
STANDARD
  9
$CLAYER
  8
COTATION1
  9
$CELTYPE
  6
BYLAYER
  9
$CECOLOR
 62
   256
  9
$CELTSCALE
 40
1.0
  9
$DELOBJ
 70
     1
  9
$DISPSILH
 70
     0
  9
$DIMSCALE
 40
1.0
  9
$DIMASZ
 40
3.0
  9
$DIMEXO
 40
0.0625
  9
$DIMDLI
 40
0.38
  9
$DIMRND
 40
0.01
  9
$DIMDLE
 40
0.0
  9
$DIMEXE
 40
0.18
  9
$DIMTP
 40
0.0
  9
$DIMTM
 40
0.0
  9
$DIMTXT
 40
2.5
  9
$DIMCEN
 40
0.09
  9
$DIMTSZ
 40
0.0
  9
$DIMTOL
 70
     0
  9
$DIMLIM
 70
     0
  9
$DIMTIH
 70
     0
  9
$DIMTOH
 70
     0
  9
$DIMSE1
 70
     0
  9
$DIMSE2
 70
     0
  9
$DIMTAD
 70
     1
  9
$DIMZIN
 70
    12
  9
$DIMBLK
  1

  9
$DIMASO
 70
     1
  9
$DIMSHO
 70
     0
  9
$DIMPOST
  1

  9
$DIMAPOST
  1

  9
$DIMALT
 70
     0
  9
$DIMALTD
 70
     2
  9
$DIMALTF
 40
25.4
  9
$DIMLFAC
 40
1.0
  9
$DIMTOFL
 70
     1
  9
$DIMTVP
 40
0.0
  9
$DIMTIX
 70
     0
  9
$DIMSOXD
 70
     0
  9
$DIMSAH
 70
     0
  9
$DIMBLK1
  1

  9
$DIMBLK2
  1

  9
$DIMSTYLE
  2
SC_STAND
  9
$DIMCLRD
 70
     0
  9
$DIMCLRE
 70
     0
  9
$DIMCLRT
 70
     0
  9
$DIMTFAC
 40
1.0
  9
$DIMGAP
 40
1.0
  9
$DIMJUST
 70
     0
  9
$DIMSD1
 70
     0
  9
$DIMSD2
 70
     0
  9
$DIMTOLJ
 70
     1
  9
$DIMTZIN
 70
    12
  9
$DIMALTZ
 70
    12
  9
$DIMALTTZ
 70
    12
  9
$DIMFIT
 70
     5
  9
$DIMUPT
 70
     0
  9
$DIMUNIT
 70
     2
  9
$DIMDEC
 70
     3
  9
$DIMTDEC
 70
     3
  9
$DIMALTU
 70
     2
  9
$DIMALTTD
 70
     2
  9
$DIMTXSTY
  7
STANDARD
  9
$DIMAUNIT
 70
     0
  9
$LUNITS
 70
     2
  9
$LUPREC
 70
     3
  9
$SKETCHINC
 40
0.1
  9
$FILLETRAD
 40
0.0625
  9
$AUNITS
 70
     0
  9
$AUPREC
 70
     0
  9
$MENU
  1
ACAD
  9
$ELEVATION
 40
0.0
  9
$PELEVATION
 40
0.0
  9
$THICKNESS
 40
0.0
  9
$LIMCHECK
 70
     0
  9
$BLIPMODE
 70
     1
  9
$CHAMFERA
 40
0.0
  9
$CHAMFERB
 40
0.0
  9
$CHAMFERC
 40
0.0
  9
$CHAMFERD
 40
0.0
  9
$SKPOLY
 70
     0
  9
$TDCREATE
 40
2450953.590960648
  9
$TDUPDATE
 40
2453880.687989537
  9
$TDINDWG
 40
0.0048311690
  9
$TDUSRTIMER
 40
0.0048311690
  9
$USRTIMER
 70
     1
  9
$ANGBASE
 50
0.0
  9
$ANGDIR
 70
     0
  9
$PDMODE
 70
     0
  9
$PDSIZE
 40
0.0
  9
$PLINEWID
 40
0.0
  9
$COORDS
 70
     0
  9
$SPLFRAME
 70
     0
  9
$SPLINETYPE
 70
     6
  9
$SPLINESEGS
 70
     8
  9
$ATTDIA
 70
     0
  9
$ATTREQ
 70
     1
  9
$HANDLING
 70
     1
  9
$HANDSEED
  5
D7E
  9
$SURFTAB1
 70
     6
  9
$SURFTAB2
 70
     6
  9
$SURFTYPE
 70
     6
  9
$SURFU
 70
     6
  9
$SURFV
 70
     6
  9
$UCSNAME
  2

  9
$UCSORG
 10
0.0
 20
0.0
 30
0.0
  9
$UCSXDIR
 10
1.0
 20
0.0
 30
0.0
  9
$UCSYDIR
 10
0.0
 20
1.0
 30
0.0
  9
$PUCSNAME
  2

  9
$PUCSORG
 10
0.0
 20
0.0
 30
0.0
  9
$PUCSXDIR
 10
1.0
 20
0.0
 30
0.0
  9
$PUCSYDIR
 10
0.0
 20
1.0
 30
0.0
  9
$USERI1
 70
     0
  9
$USERI2
 70
     0
  9
$USERI3
 70
     0
  9
$USERI4
 70
     0
  9
$USERI5
 70
     0
  9
$USERR1
 40
0.0
  9
$USERR2
 40
0.0
  9
$USERR3
 40
0.0
  9
$USERR4
 40
0.0
  9
$USERR5
 40
0.0
  9
$WORLDVIEW
 70
     1
  9
$SHADEDGE
 70
     3
  9
$SHADEDIF
 70
    70
  9
$TILEMODE
 70
     1
  9
$MAXACTVP
 70
    32
  9
$PINSBASE
 10
0.0
 20
0.0
 30
0.0
  9
$PLIMCHECK
 70
     0
  9
$PEXTMIN
 10
-3.174999
 20
-3.175
 30
0.0
  9
$PEXTMAX
 10
203.812116
 20
370.276807
 30
0.0
  9
$PLIMMIN
 10
-3.175
 20
-3.175
  9
$PLIMMAX
 10
203.812115
 20
370.276807
  9
$UNITMODE
 70
     0
  9
$VISRETAIN
 70
     0
  9
$PLINEGEN
 70
     0
  9
$PSLTSCALE
 70
     1
  9
$TREEDEPTH
 70
  3020
  9
$PICKSTYLE
 70
     1
  9
$CMLSTYLE
  2
STANDARD
  9
$CMLJUST
 70
     0
  9
$CMLSCALE
 40
1.0
  9
$PROXYGRAPHICS
 70
     1
  9
$MEASUREMENT
 70
     0
  0
ENDSEC
  0
SECTION
  2
CLASSES
  0
CLASS
  1
DICTIONARYVAR
  2
AcDbDictionaryVar
  3
"AutoCAD"
 90
        0
280
     0
281
     0
  0
CLASS
  1
HATCH
  2
AcDbHatch
  3
"ACAD_SEDONA"
 90
        0
280
     0
281
     1
  0
ENDSEC
  0
SECTION
  2
TABLES
  0
TABLE
  2
VPORT
  5
F4
100
AcDbSymbolTable
 70
     2
  0
VPORT
  5
D7D
100
AcDbSymbolTableRecord
100
AcDbViewportTableRecord
  2
*ACTIVE
 70
     0
 10
0.0
 20
0.0
 11
1.0
 21
1.0
 12
34.55246
 22
31.215455
 13
0.0
 23
0.0
 14
1.0
 24
1.0
 15
10.0
 25
10.0
 16
0.0
 26
0.0
 36
1.0
 17
0.0
 27
0.0
 37
0.0
 40
78.221328
 41
1.966667
 42
50.0
 43
0.0
 44
0.0
 50
0.0
 51
0.0
 71
     0
 72
   100
 73
     1
 74
     1
 75
     0
 76
     1
 77
     0
 78
     0
  0
ENDTAB
  0
TABLE
  2
LTYPE
  5
F1
100
AcDbSymbolTable
 70
     5
  0
LTYPE
  5
FD
100
AcDbSymbolTableRecord
100
AcDbLinetypeTableRecord
  2
BYBLOCK
 70
     0
  3

 72
    65
 73
     0
 40
0.0
  0
LTYPE
  5
FE
100
AcDbSymbolTableRecord
100
AcDbLinetypeTableRecord
  2
BYLAYER
 70
     0
  3

 72
    65
 73
     0
 40
0.0
  0
LTYPE
  5
FF
100
AcDbSymbolTableRecord
100
AcDbLinetypeTableRecord
  2
CONTINUOUS
 70
     0
  3
Solid line
 72
    65
 73
     0
 40
0.0
  0
ENDTAB
  0
TABLE
  2
LAYER
  5
EE
100
AcDbSymbolTable
 70
     5
  0
LAYER
  5
FA
100
AcDbSymbolTableRecord
100
AcDbLayerTableRecord
  2
0
 70
     0
 62
     7
  6
CONTINUOUS
  0
LAYER
  5
12C
100
AcDbSymbolTableRecord
100
AcDbLayerTableRecord
  2
ALPHA
 70
     0
 62
   255
  6
CONTINUOUS
  0
LAYER
  5
12F
100
AcDbSymbolTableRecord
100
AcDbLayerTableRecord
  2
COTATION1
 70
     0
 62
     2
  6
CONTINUOUS
  0
LAYER
  5
13B
100
AcDbSymbolTableRecord
100
AcDbLayerTableRecord
  2
ASHADE
 70
     0
 62
     7
  6
CONTINUOUS
  0
LAYER
  5
13E
100
AcDbSymbolTableRecord
100
AcDbLayerTableRecord
  2
DEFPOINTS
 70
     0
 62
     7
  6
CONTINUOUS
  0
ENDTAB
  0
TABLE
  2
STYLE
  5
EF
100
AcDbSymbolTable
 70
     2
  0
STYLE
  5
FB
100
AcDbSymbolTableRecord
100
AcDbTextStyleTableRecord
  2
STANDARD
 70
     0
 40
0.0
 41
1.0
 50
0.0
 71
     0
 42
2.5
  3
txt
  4

  0
ENDTAB
  0
TABLE
  2
VIEW
  5
F2
100
AcDbSymbolTable
 70
     0
  0
ENDTAB
  0
TABLE
  2
UCS
  5
F3
100
AcDbSymbolTable
 70
     0
  0
ENDTAB
  0
TABLE
  2
APPID
  5
F5
100
AcDbSymbolTable
 70
     3
  0
APPID
  5
FC
100
AcDbSymbolTableRecord
100
AcDbRegAppTableRecord
  2
ACAD
 70
     0
  0
APPID
  5
127
100
AcDbSymbolTableRecord
100
AcDbRegAppTableRecord
  2
AVE_RENDER
 70
     0
  0
APPID
  5
128
100
AcDbSymbolTableRecord
100
AcDbRegAppTableRecord
  2
AVE_MATERIAL
 70
     0
  0
ENDTAB
  0
TABLE
  2
DIMSTYLE
  5
F6
100
AcDbSymbolTable
 70
     2
  0
DIMSTYLE
105
129
100
AcDbSymbolTableRecord
100
AcDbDimStyleTableRecord
  2
STANDARD
 70
     0
  3

  4

  5

  6

  7

 40
1.0
 41
0.18
 42
0.0625
 43
0.38
 44
0.18
 45
0.0
 46
0.0
 47
0.0
 48
0.0
140
0.18
141
0.09
142
0.0
143
25.4
144
1.0
145
0.0
146
1.0
147
0.09
 71
     0
 72
     0
 73
     1
 74
     1
 75
     0
 76
     0
 77
     0
 78
     0
170
     0
171
     2
172
     0
173
     0
174
     0
175
     0
176
     0
177
     0
178
     0
270
     2
271
     3
272
     3
273
     2
274
     2
340
FB
275
     0
280
     0
281
     0
282
     0
283
     1
284
    12
285
    12
286
    12
287
     5
288
     0
  0
DIMSTYLE
105
12A
102
{ACAD_REACTORS
330
D1F
330
D37
330
D46
102
}
100
AcDbSymbolTableRecord
100
AcDbDimStyleTableRecord
  2
SC_STAND
 70
     0
  3

  4

  5

  6

  7

 40
1.0
 41
3.0
 42
0.0625
 43
0.38
 44
0.18
 45
0.01
 46
0.0
 47
0.0
 48
0.0
140
2.5
141
0.09
142
0.0
143
25.4
144
1.0
145
0.0
146
1.0
147
1.0
 71
     0
 72
     0
 73
     0
 74
     0
 75
     0
 76
     0
 77
     1
 78
    12
170
     0
171
     2
172
     1
173
     0
174
     0
175
     0
176
     0
177
     0
178
     0
270
     2
271
     3
272
     3
273
     2
274
     2
340
FB
275
     0
280
     0
281
     0
282
     0
283
     1
284
    12
285
    12
286
    12
287
     5
288
     0
  0
ENDTAB
  0
TABLE
  2
BLOCK_RECORD
  5
ED
100
AcDbSymbolTable
 70
    10
  0
BLOCK_RECORD
  5
103
100
AcDbSymbolTableRecord
100
AcDbBlockTableRecord
  2
*MODEL_SPACE
  0
BLOCK_RECORD
  5
100
100
AcDbSymbolTableRecord
100
AcDbBlockTableRecord
  2
*PAPER_SPACE
  0
BLOCK_RECORD
  5
108
100
AcDbSymbolTableRecord
100
AcDbBlockTableRecord
  2
AVE_RENDER
  0
BLOCK_RECORD
  5
109
100
AcDbSymbolTableRecord
100
AcDbBlockTableRecord
  2
AVE_GLOBAL
  0
BLOCK_RECORD
  5
10A
100
AcDbSymbolTableRecord
100
AcDbBlockTableRecord
  2
SCH_IS
  0
BLOCK_RECORD
  5
D13
100
AcDbSymbolTableRecord
100
AcDbBlockTableRecord
  2
*D7
  0
BLOCK_RECORD
  5
D2B
100
AcDbSymbolTableRecord
100
AcDbBlockTableRecord
  2
*D8
  0
BLOCK_RECORD
  5
D38
100
AcDbSymbolTableRecord
100
AcDbBlockTableRecord
  2
*D9
  0
ENDTAB
  0
ENDSEC
  0
SECTION
  2
BLOCKS
  0
BLOCK
  5
141
100
AcDbEntity
  8
0
100
AcDbBlockBegin
  2
*MODEL_SPACE
 70
     0
 10
0.0
 20
0.0
 30
0.0
  3
*MODEL_SPACE
  1

  0
ENDBLK
  5
142
100
AcDbEntity
  8
0
100
AcDbBlockEnd
  0
BLOCK
  5
13F
100
AcDbEntity
 67
     1
  8
0
100
AcDbBlockBegin
  2
*PAPER_SPACE
 70
     0
 10
0.0
 20
0.0
 30
0.0
  3
*PAPER_SPACE
  1

  0
ENDBLK
  5
140
100
AcDbEntity
 67
     1
  8
0
100
AcDbBlockEnd
  0
BLOCK
  5
8D
100
AcDbEntity
  8
0
100
AcDbBlockBegin
  2
AVE_RENDER
 70
     0
 10
0.0
 20
0.0
 30
0.0
  3
AVE_RENDER
  1
AVE_RENDER
  0
ENDBLK
  5
8E
100
AcDbEntity
  8
0
100
AcDbBlockEnd
  0
BLOCK
  5
90
100
AcDbEntity
  8
0
100
AcDbBlockBegin
  2
AVE_GLOBAL
 70
     0
 10
0.0
 20
0.0
 30
0.0
  3
AVE_GLOBAL
  1
AVE_GLOBAL
  0
ENDBLK
  5
91
100
AcDbEntity
  8
0
100
AcDbBlockEnd
  0
BLOCK
  5
C9
100
AcDbEntity
  8
0
100
AcDbBlockBegin
  2
SCH_IS
 70
     0
 10
0.0
 20
0.0
 30
0.0
  3
SCH_IS
  1

  0
INSERT
  5
C0
100
AcDbEntity
  8
ASHADE
 62
     1
100
AcDbBlockReference
  2
AVE_RENDER
 10
0.0
 20
0.0
 30
0.0
1001
AVE_RENDER
1002
{
1070
     6
1000
Pref
1070
    50
1070
    20
1070
     1
1070
     0
1000

1070
    10
1070
     1
1070
    30
1040
25.4
1070
     1
1040
0.3
1040
0.7
1040
0.0
1040
10.0
1010
-1.0
1020
-1.0
1030
-1.0
1040
0.3
1070
    49
1070
     0
1070
     0
1010
1.0
1020
1.0
1030
1.0
1040
45.0
1070
     1
1070
     0
1000
WCS
1040
0.0
1002
}
  0
INSERT
  5
C1
100
AcDbEntity
  8
ASHADE
 62
     3
100
AcDbBlockReference
  2
AVE_RENDER
 10
0.0
 20
0.0
 30
0.0
1001
AVE_RENDER
1002
{
1070
     0
1000
Full Opt
1070
     0
1070
     1
1070
     1
1070
     1
1070
     0
1070
     0
1070
     0
1070
     1
1070
     1
1040
0.0001
1040
0.0001
1002
}
  0
INSERT
  5
C2
100
AcDbEntity
  8
ASHADE
 62
     4
100
AcDbBlockReference
  2
AVE_RENDER
 10
0.0
 20
0.0
 30
0.0
1001
AVE_RENDER
1002
{
1070
     0
1000
Quick Opt
1070
     0
1070
     1
1070
     1
1070
     1
1070
     0
1070
     0
1070
     1
1002
}
  0
INSERT
  5
C3
100
AcDbEntity
  8
ASHADE
 62
     5
100
AcDbBlockReference
  2
AVE_RENDER
 10
0.0
 20
0.0
 30
0.0
1001
AVE_RENDER
1002
{
1070
     1
1000
Scanl Opt
1070
     2
1070
     0
1070
     2
1040
2.0
1040
4.0
1070
     0
1070
     1
1070
     0
1040
0.03
1002
}
  0
INSERT
  5
C4
100
AcDbEntity
  8
ASHADE
 62
     6
100
AcDbBlockReference
  2
AVE_RENDER
 10
0.0
 20
0.0
 30
0.0
1001
AVE_RENDER
1002
{
1070
     2
1000
Raytr Opt
1070
     2
1070
     0
1070
     2
1040
2.0
1040
4.0
1070
     0
1070
     1
1070
     1
1040
0.03
1070
     3
1040
0.03
1002
}
  0
INSERT
  5
C5
100
AcDbEntity
  8
ASHADE
 62
     7
100
AcDbBlockReference
  2
AVE_RENDER
 10
0.0
 20
0.0
 30
0.0
1001
AVE_RENDER
1002
{
1070
     0
1000
RFile Opt
1070
     5
1070
   640
1070
   480
1070
 10000
1070
     3
1070
    32
1070
    24
1070
     0
1070
     0
1070
     0
1070
     1
1070
     0
1070
     0
1070
     0
1002
}
  0
INSERT
  5
C6
100
AcDbEntity
  8
ASHADE
 62
     8
100
AcDbBlockReference
  2
AVE_RENDER
 10
0.0
 20
0.0
 30
0.0
1001
AVE_RENDER
1002
{
1070
     0
1000
Fog Opt
1070
     0
1070
     0
1040
0.0
1040
1.0
1040
0.0
1040
1.0
1010
0.5
1020
0.5
1030
0.5
1002
}
  0
INSERT
  5
C7
100
AcDbEntity
  8
ASHADE
 62
     9
100
AcDbBlockReference
  2
AVE_RENDER
 10
0.0
 20
0.0
 30
0.0
1001
AVE_RENDER
1002
{
1070
     0
1000
BG Opt
1070
     0
1070
     1
1010
0.0
1020
0.0
1030
0.0
1010
1.0
1020
0.0
1030
0.0
1010
0.0
1020
1.0
1030
0.0
1010
0.0
1020
0.0
1030
1.0
1040
0.5
1040
0.33
1040
0.0
1000

1070
     1
1000

1070
     1
1070
     1
1040
1.0
1040
1.0
1040
0.0
1040
0.0
1070
     0
1002
}
  0
INSERT
  5
C8
100
AcDbEntity
  8
ASHADE
 62
     1
100
AcDbBlockReference
  2
AVE_GLOBAL
 10
0.0
 20
0.0
 30
0.0
1001
AVE_MATERIAL
1002
{
1000
*GLOBAL*
1000
1
1000
Finition globale.
1002
{
1002
}
1002
{
1070
    63
1002
{
1002
{
1010
-1.0
1020
-1.0
1030
-1.0
1002
}
1040
0.1
1000

1040
0.0
1002
{
1002
}
1040
0.0
1002
{
1002
}
1040
0.0
1002
}
1002
{
1002
{
1010
-1.0
1020
-1.0
1030
-1.0
1002
}
1040
0.7
1000

1040
0.0
1002
{
1002
}
1040
0.0
1002
{
1002
}
1040
0.0
1002
}
1002
{
1002
{
1010
-1.0
1020
-1.0
1030
-1.0
1002
}
1040
0.2
1000

1040
0.0
1002
{
1002
}
1040
0.0
1002
{
1002
}
1040
0.0
1002
}
1002
{
1070
     0
1002
{
1070
     1
1002
{
1040
1.0
1040
1.0
1000

1040
0.0
1002
{
1002
}
1040
0.0
1002
{
1002
}
1040
0.0
1002
}
1002
}
1040
1.0
1040
0.0
1040
0.0
1002
}
1002
{
1040
1.0
1040
1.0
1000

1040
0.0
1002
{
1002
}
1040
0.0
1002
{
1002
}
1040
0.0
1002
}
1002
{
1040
0.5
1040
1.0
1000

1040
0.0
1002
{
1002
}
1040
0.0
1002
{
1002
}
1040
0.0
1002
}
1002
{
1070
     0
1040
0.0
1002
{
1002
}
1040
1.0
1002
{
1002
}
1040
0.0
1002
}
1002
{
1040
0.0
1002
{
1002
{
1010
0.0
1020
0.0
1030
0.0
1002
}
1040
1.0
1000

1040
0.0
1002
{
1002
}
1040
0.0
1002
{
1002
}
1040
0.0
1002
}
1002
}
1002
{
1002
{
1070
     1
1002
{
1040
0.0
1040
1.0
1000

1040
0.0
1002
{
1002
}
1040
0.0
1002
{
1002
}
1040
0.0
1002
}
1002
}
1040
0.0
1002
{
1002
}
1010
1.0
1020
0.0
1030
0.0
1010
0.0
1020
1.0
1030
0.0
1010
0.0
1020
0.0
1030
1.0
1070
     0
1002
}
1002
{
1002
{
1040
1.0
1040
1.0
1002
{
1070
     1
1002
{
1040
1.0
1040
1.0
1000

1040
0.0
1002
{
1002
}
1040
0.0
1002
{
1002
}
1040
0.0
1002
}
1002
}
1002
}
1070
     0
1040
0.0
1002
{
1002
}
1002
}
1002
{
1002
}
1002
}
1002
{
1071
        3
1070
     3
1070
     0
1002
{
1070
     2
1070
     0
1070
     0
1040
0.0
1002
}
1070
     0
1070
     2
1002
{
1002
}
1002
}
1002
{
1040
8030.0
1040
190.300003
1040
0.305
1040
228.0
1040
545.0
1040
14.0
1040
17.4
1040
0.456
1002
}
1002
}
  0
ENDBLK
  5
CA
100
AcDbEntity
  8
0
100
AcDbBlockEnd
  0
BLOCK
  5
D20
100
AcDbEntity
  8
0
100
AcDbBlockBegin
  2
*D7
 70
     1
 10
0.0
 20
0.0
 30
0.0
  3
*D7
  1

  0
LINE
  5
D21
100
AcDbEntity
  8
0
  6
BYBLOCK
 62
     0
100
AcDbLine
 10
-0.445283
 20
13.233674
 30
0.0
 11
-0.445283
 21
-7.102315
 31
0.0
  0
LINE
  5
D22
100
AcDbEntity
  8
0
  6
BYBLOCK
 62
     0
100
AcDbLine
 10
43.554959
 20
-0.178591
 30
0.0
 11
43.554959
 21
-7.102315
 31
0.0
  0
LINE
  5
D23
100
AcDbEntity
  8
0
  6
BYBLOCK
 62
     0
100
AcDbLine
 10
2.554717
 20
-6.922315
 30
0.0
 11
40.554959
 21
-6.922315
 31
0.0
  0
SOLID
  5
D24
100
AcDbEntity
  8
0
  6
BYBLOCK
 62
     0
100
AcDbTrace
 10
2.554717
 20
-6.422315
 30
0.0
 11
2.554717
 21
-7.422315
 31
0.0
 12
-0.445283
 22
-6.922315
 32
0.0
 13
-0.445283
 23
-6.922315
 33
0.0
  0
SOLID
  5
D25
100
AcDbEntity
  8
0
  6
BYBLOCK
 62
     0
100
AcDbTrace
 10
40.554959
 20
-6.422315
 30
0.0
 11
40.554959
 21
-7.422315
 31
0.0
 12
43.554959
 22
-6.922315
 32
0.0
 13
43.554959
 23
-6.922315
 33
0.0
  0
MTEXT
  5
D26
100
AcDbEntity
  8
0
  6
BYBLOCK
 62
     0
100
AcDbMText
 10
21.554838
 20
-4.672315
 30
0.0
 40
2.5
 41
0.0
 71
     5
 72
     1
  1
\A1;44
  0
POINT
  5
D27
100
AcDbEntity
  8
DEFPOINTS
  6
BYBLOCK
 62
     0
100
AcDbPoint
 10
-0.445283
 20
13.296174
 30
0.0
  0
POINT
  5
D28
100
AcDbEntity
  8
DEFPOINTS
  6
BYBLOCK
 62
     0
100
AcDbPoint
 10
43.554959
 20
-0.116091
 30
0.0
  0
POINT
  5
D29
100
AcDbEntity
  8
DEFPOINTS
  6
BYBLOCK
 62
     0
100
AcDbPoint
 10
43.554959
 20
-6.922315
 30
0.0
  0
ENDBLK
  5
D2A
100
AcDbEntity
  8
0
100
AcDbBlockEnd
  0
BLOCK
  5
D2C
100
AcDbEntity
  8
0
100
AcDbBlockBegin
  2
*D8
 70
     1
 10
0.0
 20
0.0
 30
0.0
  3
*D8
  1

  0
LINE
  5
D2D
100
AcDbEntity
  8
0
  6
BYBLOCK
 62
     0
100
AcDbLine
 10
69.554751
 20
29.946128
 30
0.0
 11
69.554751
 21
66.549707
 31
0.0
  0
LINE
  5
D2E
100
AcDbEntity
  8
0
  6
BYBLOCK
 62
     0
100
AcDbLine
 10
-0.445283
 20
29.940271
 30
0.0
 11
-0.445283
 21
66.549707
 31
0.0
  0
LINE
  5
D2F
100
AcDbEntity
  8
0
  6
BYBLOCK
 62
     0
100
AcDbLine
 10
66.554751
 20
66.369707
 30
0.0
 11
2.554717
 21
66.369707
 31
0.0
  0
SOLID
  5
D30
100
AcDbEntity
  8
0
  6
BYBLOCK
 62
     0
100
AcDbTrace
 10
66.554751
 20
66.869707
 30
0.0
 11
66.554751
 21
65.869707
 31
0.0
 12
69.554751
 22
66.369707
 32
0.0
 13
69.554751
 23
66.369707
 33
0.0
  0
SOLID
  5
D31
100
AcDbEntity
  8
0
  6
BYBLOCK
 62
     0
100
AcDbTrace
 10
2.554717
 20
66.869707
 30
0.0
 11
2.554717
 21
65.869707
 31
0.0
 12
-0.445283
 22
66.369707
 32
0.0
 13
-0.445283
 23
66.369707
 33
0.0
  0
MTEXT
  5
D32
100
AcDbEntity
  8
0
  6
BYBLOCK
 62
     0
100
AcDbMText
 10
34.554734
 20
68.619707
 30
0.0
 40
2.5
 41
0.0
 71
     5
 72
     1
  1
\A1;70
  0
POINT
  5
D33
100
AcDbEntity
  8
DEFPOINTS
  6
BYBLOCK
 62
     0
100
AcDbPoint
 10
69.554751
 20
29.883628
 30
0.0
  0
POINT
  5
D34
100
AcDbEntity
  8
DEFPOINTS
  6
BYBLOCK
 62
     0
100
AcDbPoint
 10
-0.445283
 20
29.877771
 30
0.0
  0
POINT
  5
D35
100
AcDbEntity
  8
DEFPOINTS
  6
BYBLOCK
 62
     0
100
AcDbPoint
 10
-0.445283
 20
66.369707
 30
0.0
  0
ENDBLK
  5
D36
100
AcDbEntity
  8
0
100
AcDbBlockEnd
  0
BLOCK
  5
D63
100
AcDbEntity
  8
0
100
AcDbBlockBegin
  2
*D9
 70
     1
 10
0.0
 20
0.0
 30
0.0
  3
*D9
  1

  0
LINE
  5
D64
100
AcDbEntity
  8
0
  6
BYBLOCK
 62
     0
100
AcDbLine
 10
64.72316
 20
32.88379
 30
0.0
 11
77.71134
 21
32.88379
 31
0.0
  0
LINE
  5
D65
100
AcDbEntity
  8
0
  6
BYBLOCK
 62
     0
100
AcDbLine
 10
64.72316
 20
26.883467
 30
0.0
 11
77.71134
 21
26.883467
 31
0.0
  0
LINE
  5
D66
100
AcDbEntity
  8
0
  6
BYBLOCK
 62
     0
100
AcDbLine
 10
77.53134
 20
35.88379
 30
0.0
 11
77.53134
 21
38.88379
 31
0.0
  0
LINE
  5
D67
100
AcDbEntity
  8
0
  6
BYBLOCK
 62
     0
100
AcDbLine
 10
77.53134
 20
23.883467
 30
0.0
 11
77.53134
 21
20.883467
 31
0.0
  0
MTEXT
  5
D68
100
AcDbEntity
  8
0
  6
BYBLOCK
 62
     0
100
AcDbMText
 10
81.03134
 20
29.883628
 30
0.0
 40
2.5
 41
0.0
 71
     5
 72
     1
  1
\A1;\fGraphSch|b0|i0|c0|p0;\C256;U\Ftxt.shx;\H2.5;\C0;6
 11
0.0
 21
1.0
 31
0.0
  0
LINE
  5
D69
100
AcDbEntity
  8
0
  6
BYBLOCK
 62
     0
100
AcDbLine
 10
77.53134
 20
32.88379
 30
0.0
 11
77.53134
 21
26.883467
 31
0.0
  0
LINE
  5
D6A
100
AcDbEntity
  8
0
  6
BYBLOCK
 62
     0
100
AcDbLine
 10
77.53134
 20
32.88379
 30
0.0
 11
77.53134
 21
26.883467
 31
0.0
  0
SOLID
  5
D6B
100
AcDbEntity
  8
0
  6
BYBLOCK
 62
     0
100
AcDbTrace
 10
77.03134
 20
35.88379
 30
0.0
 11
78.03134
 21
35.88379
 31
0.0
 12
77.53134
 22
32.88379
 32
0.0
 13
77.53134
 23
32.88379
 33
0.0
  0
SOLID
  5
D6C
100
AcDbEntity
  8
0
  6
BYBLOCK
 62
     0
100
AcDbTrace
 10
77.03134
 20
23.883467
 30
0.0
 11
78.03134
 21
23.883467
 31
0.0
 12
77.53134
 22
26.883467
 32
0.0
 13
77.53134
 23
26.883467
 33
0.0
  0
POINT
  5
D6D
100
AcDbEntity
  8
DEFPOINTS
  6
BYBLOCK
 62
     0
100
AcDbPoint
 10
64.66066
 20
32.88379
 30
0.0
  0
POINT
  5
D6E
100
AcDbEntity
  8
DEFPOINTS
  6
BYBLOCK
 62
     0
100
AcDbPoint
 10
64.66066
 20
26.883467
 30
0.0
  0
POINT
  5
D6F
100
AcDbEntity
  8
DEFPOINTS
  6
BYBLOCK
 62
     0
100
AcDbPoint
 10
77.53134
 20
26.883467
 30
0.0
  0
ENDBLK
  5
D70
100
AcDbEntity
  8
0
100
AcDbBlockEnd
  0
ENDSEC
  0
SECTION
  2
ENTITIES
  0
INSERT
  5
CC
100
AcDbEntity
  8
0
100
AcDbBlockReference
  2
SCH_IS
 10
-68.718396
 20
-140.042541
 30
0.0
  0
INSERT
  5
EC
100
AcDbEntity
  8
COTATION1
100
AcDbBlockReference
  2
SCH_IS
 10
0.0
 20
0.0
 30
0.0
  0
LINE
  5
CEF
100
AcDbEntity
  8
ALPHA
100
AcDbLine
 10
38.554748
 20
7.383882
 30
0.0
 11
1.509981
 21
7.371479
 31
0.0
  0
LINE
  5
CF0
100
AcDbEntity
  8
ALPHA
100
AcDbLine
 10
12.755634
 20
52.383891
 30
0.0
 11
38.554748
 21
52.383891
 31
0.0
  0
LINE
  5
CF1
100
AcDbEntity
  8
ALPHA
100
AcDbLine
 10
28.890738
 20
43.06887
 30
0.0
 11
28.890738
 21
16.722847
 31
0.0
  0
LINE
  5
CF2
100
AcDbEntity
  8
ALPHA
100
AcDbLine
 10
10.338727
 20
16.067589
 30
0.0
 11
10.338727
 21
32.436961
 31
0.0
  0
LINE
  5
CF3
100
AcDbEntity
  8
ALPHA
100
AcDbLine
 10
1.538575
 20
32.436961
 30
0.0
 11
1.538575
 21
16.067589
 31
0.0
  0
LINE
  5
CF4
100
AcDbEntity
  8
ALPHA
100
AcDbLine
 10
-0.445283
 20
9.418211
 30
0.0
 11
-0.445283
 21
50.337332
 31
0.0
  0
SPLINE
  5
CF5
100
AcDbEntity
  8
ALPHA
100
AcDbSpline
210
0.0
220
0.0
230
-1.0
 70
     8
 71
     3
 72
     8
 73
     4
 74
     0
 42
0.0000001
 43
0.0000001
 40
0.0
 40
0.0
 40
0.0
 40
0.0
 40
1.0
 40
1.0
 40
1.0
 40
1.0
 10
1.509980657999278
 20
7.371479413917143
 30
0.0
 10
0.4297709683291373
 20
7.371479413917143
 30
0.0
 10
-0.4452832851430913
 20
8.287874813222686
 30
0.0
 10
-0.4452832851430913
 20
9.418210642215754
 30
0.0
  0
SPLINE
  5
CF6
100
AcDbEntity
  8
ALPHA
100
AcDbSpline
210
0.0
220
0.0
230
1.0
 70
     8
 71
     3
 72
    11
 73
     7
 74
     0
 42
0.0000001
 43
0.0000001
 40
0.0
 40
0.0
 40
0.0
 40
0.0
 40
1.0
 40
1.0
 40
1.0
 40
2.0
 40
2.0
 40
2.0
 40
2.0
 10
1.538574950534012
 20
16.0675894399588
 30
0.0
 10
1.538574950534012
 20
13.52510897120881
 30
0.0
 10
3.508480549492333
 20
11.46390834186853
 30
0.0
 10
5.938650905395121
 20
11.46390834186853
 30
0.0
 10
8.368821261297881
 20
11.46390834186853
 30
0.0
 10
10.33872686025623
 20
13.52510897120881
 30
0.0
 10
10.33872686025623
 20
16.0675894399588
 30
0.0
  0
SPLINE
  5
CF7
100
AcDbEntity
  8
ALPHA
100
AcDbSpline
210
0.0
220
0.0
230
-1.0
 70
     8
 71
     3
 72
     8
 73
     4
 74
     0
 42
0.0000001
 43
0.0000001
 40
0.0
 40
0.0
 40
0.0
 40
0.0
 40
1.0
 40
1.0
 40
1.0
 40
1.0
 10
28.89073830773887
 20
16.72284660141713
 30
0.0
 10
28.89073830773887
 20
13.27017190523658
 30
0.0
 10
26.21527715322497
 20
10.47034280367408
 30
0.0
 10
22.91453116798192
 20
10.47034280367408
 30
0.0
  0
LINE
  5
CF8
100
AcDbEntity
  8
ALPHA
100
AcDbLine
 10
22.914531
 20
10.470343
 30
0.0
 11
18.315673
 21
10.470343
 31
0.0
  0
LINE
  5
CF9
100
AcDbEntity
  8
ALPHA
100
AcDbLine
 10
-0.445283
 20
44.710286
 30
0.0
 11
12.836077
 21
44.710286
 31
0.0
  0
LINE
  5
CFA
100
AcDbEntity
  8
ALPHA
100
AcDbLine
 10
12.755634
 20
51.360526
 30
0.0
 11
1.509981
 21
51.360526
 31
0.0
  0
LINE
  5
CFB
100
AcDbEntity
  8
ALPHA
100
AcDbLine
 10
1.509981
 20
42.152474
 30
0.0
 11
12.755634
 21
42.152474
 31
0.0
  0
LINE
  5
CFC
100
AcDbEntity
  8
ALPHA
100
AcDbLine
 10
1.509981
 20
51.360526
 30
0.0
 11
12.755634
 21
51.360526
 31
0.0
  0
LINE
  5
CFD
100
AcDbEntity
  8
ALPHA
100
AcDbLine
 10
1.509981
 20
51.360526
 30
0.0
 11
1.509981
 21
42.152474
 31
0.0
  0
SPLINE
  5
CFE
100
AcDbEntity
  8
ALPHA
100
AcDbSpline
210
0.0
220
0.0
230
-1.0
 70
     8
 71
     3
 72
    11
 73
     7
 74
     0
 42
0.0000001
 43
0.0000001
 40
0.0
 40
0.0
 40
0.0
 40
0.0
 40
1.0
 40
1.0
 40
1.0
 40
2.0
 40
2.0
 40
2.0
 40
2.0
 10
10.33872686025623
 20
32.43696064221575
 30
0.0
 10
10.33872686025623
 20
34.97961336574005
 30
0.0
 10
8.368821261297881
 20
37.04081399508032
 30
0.0
 10
5.938650905395121
 20
37.04081399508032
 30
0.0
 10
3.508480549492333
 20
37.04081399508032
 30
0.0
 10
1.538574950534012
 20
34.97961336574005
 30
0.0
 10
1.538574950534012
 20
32.43696064221575
 30
0.0
  0
LINE
  5
CFF
100
AcDbEntity
  8
ALPHA
100
AcDbLine
 10
10.554218
 20
44.694266
 30
0.0
 11
10.554218
 21
42.167805
 31
0.0
  0
SPLINE
  5
D00
100
AcDbEntity
  8
ALPHA
100
AcDbSpline
210
0.0
220
0.0
230
1.0
 70
     8
 71
     3
 72
     8
 73
     4
 74
     0
 42
0.0000001
 43
0.0000001
 40
0.0
 40
0.0
 40
0.0
 40
0.0
 40
1.0
 40
1.0
 40
1.0
 40
1.0
 10
-0.4452832851430913
 20
50.33733227850047
 30
0.0
 10
-0.4452832851430913
 20
51.46749585271921
 30
0.0
 10
0.4297709683291373
 20
52.38389125202477
 30
0.0
 10
1.509980657999278
 20
52.38389125202477
 30
0.0
  0
LINE
  5
D01
100
AcDbEntity
  8
ALPHA
100
AcDbLine
 10
1.509981
 20
52.383891
 30
0.0
 11
1.509981
 21
51.360526
 31
0.0
  0
LINE
  5
D02
100
AcDbEntity
  8
ALPHA
100
AcDbLine
 10
12.755634
 20
42.152474
 30
0.0
 11
12.755634
 21
51.360526
 31
0.0
  0
SPLINE
  5
D03
100
AcDbEntity
  8
ALPHA
100
AcDbSpline
210
0.0
220
0.0
230
1.0
 70
     8
 71
     3
 72
     8
 73
     4
 74
     0
 42
0.0000001
 43
0.0000001
 40
0.0
 40
0.0
 40
0.0
 40
0.0
 40
1.0
 40
1.0
 40
1.0
 40
1.0
 10
22.91453116798192
 20
49.3215458744206
 30
0.0
 10
26.21527715322497
 20
49.3215458744206
 30
0.0
 10
28.89073830773887
 20
46.52240579195532
 30
0.0
 10
28.89073830773887
 20
43.06886982190325
 30
0.0
  0
LINE
  5
D04
100
AcDbEntity
  8
ALPHA
100
AcDbLine
 10
12.755634
 20
51.360526
 30
0.0
 11
12.755634
 21
52.383891
 31
0.0
  0
LINE
  5
D05
100
AcDbEntity
  8
ALPHA
100
AcDbLine
 10
18.315673
 20
49.321546
 30
0.0
 11
22.914531
 21
49.321546
 31
0.0
  0
LINE
  5
D06
100
AcDbEntity
  8
ALPHA
100
AcDbLine
 10
52.554927
 20
26.883467
 30
0.0
 11
52.554927
 21
32.88379
 31
0.0
  0
LINE
  5
D07
100
AcDbEntity
  8
ALPHA
100
AcDbLine
 10
69.554751
 20
32.88379
 30
0.0
 11
69.554751
 21
26.883467
 31
0.0
  0
LINE
  5
D08
100
AcDbEntity
  8
ALPHA
100
AcDbLine
 10
44.554726
 20
59.883692
 30
0.0
 11
44.554726
 21
-0.116091
 31
0.0
  0
LINE
  5
D09
100
AcDbEntity
  8
ALPHA
100
AcDbLine
 10
38.554748
 20
58.92785
 30
0.0
 11
38.554748
 21
0.839234
 31
0.0
  0
LINE
  5
D0A
100
AcDbEntity
  8
ALPHA
100
AcDbLine
 10
43.554959
 20
-0.116091
 30
0.0
 11
43.554959
 21
59.883692
 31
0.0
  0
LINE
  5
D0B
100
AcDbEntity
  8
ALPHA
100
AcDbLine
 10
69.554751
 20
26.883467
 30
0.0
 11
44.554726
 21
26.883467
 31
0.0
  0
LINE
  5
D0C
100
AcDbEntity
  8
ALPHA
100
AcDbLine
 10
39.511279
 20
-0.116091
 30
0.0
 11
43.554959
 21
-0.116091
 31
0.0
  0
SPLINE
  5
D0D
100
AcDbEntity
  8
ALPHA
100
AcDbSpline
210
0.0
220
0.0
230
1.0
 70
     8
 71
     3
 72
     8
 73
     4
 74
     0
 42
0.0000001
 43
0.0000001
 40
0.0
 40
0.0
 40
0.0
 40
0.0
 40
1.0
 40
1.0
 40
1.0
 40
1.0
 10
38.55474791060345
 20
0.8392338627018602
 30
0.0
 10
38.55474791060345
 20
0.3117897437782489
 30
0.0
 10
38.98280102475274
 20
-0.1160911155967454
 30
0.0
 10
39.51127867232219
 20
-0.1160911155967454
 30
0.0
  0
LINE
  5
D0E
100
AcDbEntity
  8
ALPHA
100
AcDbLine
 10
44.554726
 20
-0.116091
 30
0.0
 11
43.554959
 21
-0.116091
 31
0.0
  0
LINE
  5
D0F
100
AcDbEntity
  8
ALPHA
100
AcDbLine
 10
44.554726
 20
32.88379
 30
0.0
 11
69.554751
 21
32.88379
 31
0.0
  0
LINE
  5
D10
100
AcDbEntity
  8
ALPHA
100
AcDbLine
 10
43.554959
 20
59.883692
 30
0.0
 11
39.511279
 21
59.883692
 31
0.0
  0
SPLINE
  5
D11
100
AcDbEntity
  8
ALPHA
100
AcDbSpline
210
0.0
220
0.0
230
1.0
 70
     8
 71
     3
 72
     8
 73
     4
 74
     0
 42
0.0000001
 43
0.0000001
 40
0.0
 40
0.0
 40
0.0
 40
0.0
 40
1.0
 40
1.0
 40
1.0
 40
1.0
 10
39.51127867232219
 20
59.88369187051436
 30
0.0
 10
38.98280102475274
 20
59.88369187051436
 30
0.0
 10
38.55474791060345
 20
59.45563875636506
 30
0.0
 10
38.55474791060345
 20
58.92785012789284
 30
0.0
  0
LINE
  5
D12
100
AcDbEntity
  8
ALPHA
100
AcDbLine
 10
43.554959
 20
59.883692
 30
0.0
 11
44.554726
 21
59.883692
 31
0.0
  0
DIMENSION
  5
D1F
100
AcDbEntity
  8
COTATION1
100
AcDbDimension
  2
*D7
 10
43.554959
 20
-6.922315
 30
0.0
 11
21.554838
 21
-4.672315
 31
0.0
 70
    32
  3
SC_STAND
100
AcDbAlignedDimension
 13
-0.445283
 23
13.296174
 33
0.0
 14
43.554959
 24
-0.116091
 34
0.0
100
AcDbRotatedDimension
  0
DIMENSION
  5
D37
100
AcDbEntity
  8
COTATION1
100
AcDbDimension
  2
*D8
 10
-0.445283
 20
66.369707
 30
0.0
 11
34.554734
 21
68.619707
 31
0.0
 70
    32
  3
SC_STAND
100
AcDbAlignedDimension
 13
69.554751
 23
29.883628
 33
0.0
 14
-0.445283
 24
29.877771
 34
0.0
100
AcDbRotatedDimension
  0
DIMENSION
  5
D46
100
AcDbEntity
  8
COTATION1
100
AcDbDimension
  2
*D9
 10
77.53134
 20
26.883467
 30
0.0
 11
81.03134
 21
29.883628
 31
0.0
 70
    32
  1
\fGraphSch|b0|i0|c0|p0;\C256;U\Ftxt.shx;\H2.5;\C0;<>
  3
SC_STAND
100
AcDbAlignedDimension
 13
64.66066
 23
32.88379
 33
0.0
 14
64.66066
 24
26.883467
 34
0.0
 50
90.0
100
AcDbRotatedDimension
  0
ENDSEC
  0
SECTION
  2
OBJECTS
  0
DICTIONARY
  5
F8
100
AcDbDictionary
  3
ACAD_GROUP
350
F9
  3
ACAD_MLINESTYLE
350
106
  3
ACDBVARIABLEDICTIONARY
350
143
  0
DICTIONARY
  5
F9
102
{ACAD_REACTORS
330
F8
102
}
100
AcDbDictionary
  0
DICTIONARY
  5
106
102
{ACAD_REACTORS
330
F8
102
}
100
AcDbDictionary
  3
STANDARD
350
107
  0
DICTIONARY
  5
143
102
{ACAD_REACTORS
330
F8
102
}
100
AcDbDictionary
  3
DIMADEC
350
144
  0
MLINESTYLE
  5
107
102
{ACAD_REACTORS
330
106
102
}
100
AcDbMlineStyle
  2
STANDARD
 70
     0
  3

 62
   256
 51
90.0
 52
90.0
 71
     2
 49
0.5
 62
   256
  6
BYLAYER
 49
-0.5
 62
   256
  6
BYLAYER
  0
DICTIONARYVAR
  5
144
102
{ACAD_REACTORS
330
143
102
}
100
DictionaryVariables
280
     0
  1
0
  0
ENDSEC
  0
EOF
