  0
SECTION
  2
HEADER
  9
$ACADVER
  1
AC1009
  9
$INSBASE
 10
402.590624
 20
-1.041018
 30
0.0
  9
$EXTMIN
 10
-5.926944
 20
10.378963
 30
0.0
  9
$EXTMAX
 10
51.211461
 20
132.764221
 30
0.0
  9
$LIMMIN
 10
-407.970438
 20
-367.832444
  9
$LIMMAX
 10
429.804077
 20
234.370848
  9
$ORTHOMODE
 70
     0
  9
$REGENMODE
 70
     1
  9
$FILLMODE
 70
     1
  9
$QTEXTMODE
 70
     0
  9
$MIRRTEXT
 70
     1
  9
$DRAGMODE
 70
     2
  9
$LTSCALE
 40
10.0
  9
$OSMODE
 70
    35
  9
$ATTMODE
 70
     1
  9
$TEXTSIZE
 40
6.0
  9
$TRACEWID
 40
1.0
  9
$TEXTSTYLE
  7
ROMANS
  9
$CLAYER
  8
ALPHA
  9
$CELTYPE
  6
BYLAYER
  9
$CECOLOR
 62
   256
  9
$DIMSCALE
 40
1.0
  9
$DIMASZ
 40
5.0
  9
$DIMEXO
 40
2.0
  9
$DIMDLI
 40
0.38
  9
$DIMRND
 40
0.0
  9
$DIMDLE
 40
0.0
  9
$DIMEXE
 40
2.5
  9
$DIMTP
 40
0.0
  9
$DIMTM
 40
0.0
  9
$DIMTXT
 40
2.5
  9
$DIMCEN
 40
0.0
  9
$DIMTSZ
 40
0.0
  9
$DIMTOL
 70
     0
  9
$DIMLIM
 70
     0
  9
$DIMTIH
 70
     1
  9
$DIMTOH
 70
     1
  9
$DIMSE1
 70
     0
  9
$DIMSE2
 70
     0
  9
$DIMTAD
 70
     1
  9
$DIMZIN
 70
    12
  9
$DIMBLK
  1
OPEN30
  9
$DIMASO
 70
     1
  9
$DIMSHO
 70
     1
  9
$DIMPOST
  1

  9
$DIMAPOST
  1

  9
$DIMALT
 70
     0
  9
$DIMALTD
 70
     2
  9
$DIMALTF
 40
25.4
  9
$DIMLFAC
 40
1.0
  9
$DIMTOFL
 70
     0
  9
$DIMTVP
 40
0.0
  9
$DIMTIX
 70
     0
  9
$DIMSOXD
 70
     0
  9
$DIMSAH
 70
     0
  9
$DIMBLK1
  1

  9
$DIMBLK2
  1

  9
$DIMSTYLE
  2
SC_DEFAUT
  9
$DIMCLRD
 70
     0
  9
$DIMCLRE
 70
     0
  9
$DIMCLRT
 70
     0
  9
$DIMTFAC
 40
1.0
  9
$DIMGAP
 40
2.0
  9
$LUNITS
 70
     2
  9
$LUPREC
 70
     1
  9
$SKETCHINC
 40
0.1
  9
$FILLETRAD
 40
0.0
  9
$AUNITS
 70
     0
  9
$AUPREC
 70
     0
  9
$MENU
  1
acad
  9
$ELEVATION
 40
0.0
  9
$PELEVATION
 40
0.0
  9
$THICKNESS
 40
0.0
  9
$LIMCHECK
 70
     0
  9
$BLIPMODE
 70
     0
  9
$CHAMFERA
 40
0.0
  9
$CHAMFERB
 40
0.0
  9
$SKPOLY
 70
     0
  9
$TDCREATE
 40
2450373.687919
  9
$TDUPDATE
 40
2453032.652639
  9
$TDINDWG
 40
1.105272
  9
$TDUSRTIMER
 40
1.105272
  9
$USRTIMER
 70
     1
  9
$ANGBASE
 50
0.0
  9
$ANGDIR
 70
     0
  9
$PDMODE
 70
    32
  9
$PDSIZE
 40
0.0
  9
$PLINEWID
 40
0.0
  9
$COORDS
 70
     1
  9
$SPLFRAME
 70
     0
  9
$SPLINETYPE
 70
     6
  9
$SPLINESEGS
 70
     8
  9
$ATTDIA
 70
     0
  9
$ATTREQ
 70
     1
  9
$HANDLING
 70
     1
  9
$HANDSEED
  5
C40D
  9
$SURFTAB1
 70
     6
  9
$SURFTAB2
 70
     6
  9
$SURFTYPE
 70
     6
  9
$SURFU
 70
     6
  9
$SURFV
 70
     6
  9
$UCSNAME
  2

  9
$UCSORG
 10
0.0
 20
0.0
 30
0.0
  9
$UCSXDIR
 10
1.0
 20
0.0
 30
0.0
  9
$UCSYDIR
 10
0.0
 20
1.0
 30
0.0
  9
$PUCSNAME
  2

  9
$PUCSORG
 10
0.0
 20
0.0
 30
0.0
  9
$PUCSXDIR
 10
1.0
 20
0.0
 30
0.0
  9
$PUCSYDIR
 10
0.0
 20
1.0
 30
0.0
  9
$USERI1
 70
     0
  9
$USERI2
 70
     0
  9
$USERI3
 70
     0
  9
$USERI4
 70
     0
  9
$USERI5
 70
     0
  9
$USERR1
 40
0.0
  9
$USERR2
 40
0.0
  9
$USERR3
 40
0.0
  9
$USERR4
 40
0.0
  9
$USERR5
 40
0.0
  9
$WORLDVIEW
 70
     1
  9
$SHADEDGE
 70
     3
  9
$SHADEDIF
 70
    70
  9
$TILEMODE
 70
     1
  9
$MAXACTVP
 70
    16
  9
$PLIMCHECK
 70
     0
  9
$PEXTMIN
 10
-1.452248
 20
-0.437698
 30
0.0
  9
$PEXTMAX
 10
12.749749
 20
8.310198
 30
0.0
  9
$PLIMMIN
 10
0.0
 20
0.0
  9
$PLIMMAX
 10
12.0
 20
9.0
  9
$UNITMODE
 70
     0
  9
$VISRETAIN
 70
     0
  9
$PLINEGEN
 70
     0
  9
$PSLTSCALE
 70
     0
  0
ENDSEC
  0
SECTION
  2
TABLES
  0
TABLE
  2
VPORT
 70
     2
  0
VPORT
  2
*ACTIVE
 70
     0
 10
0.0
 20
0.0
 11
1.0
 21
1.0
 12
22.645614
 22
71.585016
 13
0.0
 23
0.0
 14
1.0
 24
1.0
 15
10.0
 25
10.0
 16
0.0
 26
0.0
 36
1.0
 17
0.0
 27
0.0
 37
0.0
 40
123.323934
 41
1.466346
 42
50.0
 43
0.0
 44
0.0
 50
0.0
 51
0.0
 71
     0
 72
   100
 73
     1
 74
     0
 75
     0
 76
     0
 77
     0
 78
     0
  0
ENDTAB
  0
TABLE
  2
LTYPE
 70
     2
  0
LTYPE
  2
CONTINUOUS
 70
     0
  3
Solid line
 72
    65
 73
     0
 40
0.0
  0
LTYPE
  2
AXES2
 70
     0
  3
___ _ ___ _ ___ _ ___ _ ___ _ ___ _ ___ _ ___ _
 72
    65
 73
     4
 40
1.125
 49
0.75
 49
-0.125
 49
0.125
 49
-0.125
  0
ENDTAB
  0
TABLE
  2
LAYER
 70
     5
  0
LAYER
  2
0
 70
     0
 62
   255
  6
CONTINUOUS
  0
LAYER
  2
COTATION1
 70
     0
 62
     2
  6
CONTINUOUS
  0
LAYER
  2
AXE
 70
     0
 62
    80
  6
AXES2
  0
LAYER
  2
DEFPOINTS
 70
     0
 62
     7
  6
CONTINUOUS
  0
LAYER
  2
ALPHA
 70
     0
 62
   254
  6
CONTINUOUS
  0
ENDTAB
  0
TABLE
  2
STYLE
 70
     2
  0
STYLE
  2
ROMANS
 70
     0
 40
0.0
 41
1.0
 50
0.0
 71
     0
 42
6.0
  3
romans
  4

  0
STYLE
  2
STANDARD
 70
     0
 40
0.0
 41
1.0
 50
0.0
 71
     0
 42
0.2
  3
txt
  4

  0
ENDTAB
  0
TABLE
  2
VIEW
 70
     0
  0
ENDTAB
  0
TABLE
  2
UCS
 70
     0
  0
ENDTAB
  0
TABLE
  2
APPID
 70
     1
  0
APPID
  2
ACAD
 70
     0
  0
ENDTAB
  0
TABLE
  2
DIMSTYLE
 70
     2
  0
DIMSTYLE
  2
SC_DEFAUT
 70
     0
  3

  4

  5
OPEN30
  6

  7

 40
1.0
 41
5.0
 42
2.0
 43
0.38
 44
2.5
 45
0.0
 46
0.0
 47
0.0
 48
0.0
140
2.5
141
0.0
142
0.0
143
25.4
144
1.0
145
0.0
146
1.0
147
2.0
 71
     0
 72
     0
 73
     1
 74
     1
 75
     0
 76
     0
 77
     1
 78
    12
170
     0
171
     2
172
     0
173
     0
174
     0
175
     0
176
     0
177
     0
178
     0
  0
DIMSTYLE
  2
STANDARD
 70
     0
  3

  4

  5

  6

  7

 40
1.0
 41
0.18
 42
0.0625
 43
0.38
 44
0.18
 45
0.0
 46
0.0
 47
0.0
 48
0.0
140
0.18
141
0.09
142
0.0
143
25.4
144
1.0
145
0.0
146
1.0
147
0.09
 71
     0
 72
     0
 73
     1
 74
     1
 75
     0
 76
     0
 77
     0
 78
     0
170
     0
171
     2
172
     0
173
     0
174
     0
175
     0
176
     0
177
     0
178
     0
  0
ENDTAB
  0
ENDSEC
  0
SECTION
  2
BLOCKS
  0
BLOCK
  8
0
  2
$MODEL_SPACE
 70
     0
 10
0.0
 20
0.0
 30
0.0
  3
$MODEL_SPACE
  1

  0
ENDBLK
  5
C406
  8
0
  0
BLOCK
 67
     1
  8
0
  2
$PAPER_SPACE
 70
     0
 10
0.0
 20
0.0
 30
0.0
  3
$PAPER_SPACE
  1

  0
ENDBLK
  5
C404
 67
     1
  8
0
  0
BLOCK
  8
0
  2
COTE
 70
     0
 10
0.0
 20
0.0
 30
0.0
  3
COTE
  1

  0
ENDBLK
  5
F
  8
0
  0
BLOCK
  8
0
  2
FOND
 70
     0
 10
0.0
 20
0.0
 30
0.0
  3
FOND
  1

  0
ENDBLK
  5
75
  8
0
  0
BLOCK
  8
0
  2
_OPEN30
 70
     0
 10
0.0
 20
0.0
 30
0.0
  3
_OPEN30
  1

  0
LINE
  5
4B05
  8
COTATION1
 62
     0
 10
-1.0
 20
0.267949
 30
0.0
 11
0.0
 21
0.0
 31
0.0
1001
ACAD
1000
RTLwPs
1070
   158
  0
LINE
  5
4B06
  8
COTATION1
 62
     0
 10
0.0
 20
0.0
 30
0.0
 11
-1.0
 21
-0.267949
 31
0.0
1001
ACAD
1000
RTLwPs
1070
   158
  0
LINE
  5
4B07
  8
COTATION1
 62
     0
 10
0.0
 20
0.0
 30
0.0
 11
-1.0
 21
0.0
 31
0.0
1001
ACAD
1000
RTLwPs
1070
   158
  0
ENDBLK
  5
4B09
  8
0
  0
BLOCK
  8
0
  2
*D3
 70
     1
 10
0.0
 20
0.0
 30
0.0
  3
*D3
  1

  0
LINE
  5
C34A
  8
COTATION1
 62
     0
 10
4.073056
 20
107.878963
 30
0.0
 11
4.073056
 21
131.378963
 31
0.0
1001
ACAD
1000
RTLwPs
1070
   158
  0
LINE
  5
C34B
  8
COTATION1
 62
     0
 10
14.973056
 20
79.128963
 30
0.0
 11
14.973056
 21
131.378963
 31
0.0
1001
ACAD
1000
RTLwPs
1070
   158
  0
LINE
  5
C34C
  8
COTATION1
 62
     0
 10
-0.926944
 20
128.878963
 30
0.0
 11
-5.926944
 21
128.878963
 31
0.0
1001
ACAD
1000
RTLwPs
1070
   158
  0
LINE
  5
C34D
  8
COTATION1
 62
     0
 10
19.973056
 20
128.878963
 30
0.0
 11
24.973056
 21
128.878963
 31
0.0
1001
ACAD
1000
RTLwPs
1070
   158
  0
TEXT
  5
C34E
  8
COTATION1
 62
     0
 10
5.487342
 20
130.264221
 30
0.0
 40
2.5
  1
10.9
1001
ACAD
1000
MTEXTBEGIN
1070
    73
1070
     1
1070
    44
1040
1.0
1070
    74
1070
     0
1000
MTEXTEND
  0
INSERT
  5
C34F
  8
COTATION1
 62
     0
  2
_OPEN30
 10
4.073056
 20
128.878963
 30
0.0
 41
5.0
 42
5.0
 43
5.0
1001
ACAD
1000
RTLwPs
1070
   158
  0
INSERT
  5
C350
  8
COTATION1
 62
     0
  2
_OPEN30
 10
14.973056
 20
128.878963
 30
0.0
 41
5.0
 42
5.0
 43
5.0
 50
180.0
1001
ACAD
1000
RTLwPs
1070
   158
  0
POINT
  5
C351
  8
DEFPOINTS
 62
     0
 10
4.073056
 20
105.878963
 30
0.0
  0
POINT
  5
C352
  8
DEFPOINTS
 62
     0
 10
14.973056
 20
77.128963
 30
0.0
  0
POINT
  5
C353
  8
DEFPOINTS
 62
     0
 10
14.973056
 20
128.878963
 30
0.0
  0
ENDBLK
  5
9B98
  8
0
  0
ENDSEC
  0
SECTION
  2
ENTITIES
  0
INSERT
  5
A
  8
0
  2
COTE
 10
0.0
 20
0.0
 30
0.0
  0
INSERT
  5
17
  8
0
  2
COTE
 10
284.010391
 20
6.373258
 30
0.0
  0
INSERT
  5
72
  8
0
  2
FOND
 10
0.0
 20
0.0
 30
0.0
  0
LINE
  5
9A33
  8
COTATION1
 10
17.473056
 20
55.528611
 30
0.0
 11
24.711461
 21
55.528611
 31
0.0
  0
LINE
  5
9A4A
  8
COTATION1
 10
14.973056
 20
63.628963
 30
0.0
 11
14.973056
 21
49.377336
 31
0.0
  0
SOLID
  5
9A78
  8
COTATION1
 10
14.973056
 20
54.085235
 30
0.0
 11
14.973056
 21
56.971987
 31
0.0
 12
17.473056
 22
55.528611
 32
0.0
 13
17.473056
 23
55.528611
 33
0.0
  0
LINE
  5
9B48
  8
COTATION1
 10
24.711461
 20
58.028611
 30
0.0
 11
51.211461
 21
58.028611
 31
0.0
  0
LINE
  5
9B49
  8
COTATION1
 10
51.211461
 20
53.028611
 30
0.0
 11
24.711461
 21
53.028611
 31
0.0
  0
TEXT
  5
9B4A
  8
COTATION1
 10
25.961461
 20
54.278611
 30
0.0
 40
2.5
  1
PLANE_TO_LINE_UP
 41
0.626087
  7
STANDARD
 72
     5
 11
49.961461
 21
54.278611
 31
0.0
  0
LINE
  5
9B4B
  8
COTATION1
 10
24.711461
 20
53.028611
 30
0.0
 11
24.711461
 21
58.028611
 31
0.0
  0
DIMENSION
  5
9B8C
  8
COTATION1
  2
*D3
 10
14.973056
 20
128.878963
 30
0.0
 11
9.773056
 21
131.514221
 31
0.0
 70
   128
 13
4.073056
 23
105.878963
 33
0.0
 14
14.973056
 24
77.128963
 34
0.0
  0
LINE
  5
A6B4
  8
AXE
 10
7.923056
 20
83.399783
 30
0.0
 11
7.923056
 21
118.878963
 31
0.0
  0
TEXT
  5
A6B5
  8
AXE
 10
2.875437
 20
83.399783
 30
0.0
 40
5.0
  1
Y
 72
     2
 11
6.923056
 21
83.399783
 31
0.0
  0
LINE
  5
A6B6
  8
AXE
 10
-0.426944
 20
105.878963
 30
0.0
 11
24.473056
 21
105.878963
 31
0.0
  0
TEXT
  5
A6B7
  8
AXE
 10
20.425437
 20
106.878963
 30
0.0
 40
5.0
  1
Z
 72
     2
 11
24.473056
 21
106.878963
 31
0.0
  0
LINE
  5
B084
  8
ALPHA
 10
13.973056
 20
61.288223
 30
0.0
 11
12.973056
 21
61.288223
 31
0.0
  0
LINE
  5
B085
  8
ALPHA
 10
12.973056
 20
59.578963
 30
0.0
 11
13.973056
 21
59.578963
 31
0.0
  0
LINE
  5
BF88
  8
ALPHA
 10
10.973056
 20
10.378963
 30
0.0
 11
10.973056
 21
110.378704
 31
0.0
  0
LINE
  5
BF89
  8
ALPHA
 10
12.973056
 20
10.378963
 30
0.0
 11
12.973056
 21
110.378704
 31
0.0
  0
LINE
  5
BF8E
  8
ALPHA
 10
10.973056
 20
10.378963
 30
0.0
 11
12.973056
 21
10.378963
 31
0.0
  0
LINE
  5
BF8F
  8
ALPHA
 10
10.973056
 20
15.378963
 30
0.0
 11
12.973056
 21
15.378963
 31
0.0
  0
LINE
  5
BF90
  8
ALPHA
 10
13.973056
 20
59.578963
 30
0.0
 11
13.973056
 21
82.178963
 31
0.0
  0
LINE
  5
BF91
  8
ALPHA
 10
12.973056
 20
59.578963
 30
0.0
 11
13.973056
 21
59.578963
 31
0.0
  0
LINE
  5
BF92
  8
ALPHA
 10
14.973056
 20
77.128963
 30
0.0
 11
14.973056
 21
64.628963
 31
0.0
  0
LINE
  5
BF93
  8
ALPHA
 10
13.973056
 20
61.288223
 30
0.0
 11
12.973056
 21
61.288223
 31
0.0
  0
LINE
  5
BF94
  8
ALPHA
 10
12.973056
 20
63.219103
 30
0.0
 11
13.973056
 21
63.219103
 31
0.0
  0
LINE
  5
BF95
  8
ALPHA
 10
12.973056
 20
65.517061
 30
0.0
 11
13.973056
 21
65.517061
 31
0.0
  0
LINE
  5
BF96
  8
ALPHA
 10
13.973056
 20
64.628963
 30
0.0
 11
14.973056
 21
64.628963
 31
0.0
  0
LINE
  5
BF97
  8
ALPHA
 10
13.973056
 20
76.240866
 30
0.0
 11
12.973056
 21
76.240866
 31
0.0
  0
LINE
  5
BF98
  8
ALPHA
 10
13.973056
 20
77.128963
 30
0.0
 11
14.973056
 21
77.128963
 31
0.0
  0
LINE
  5
BF99
  8
ALPHA
 10
13.973056
 20
78.538824
 30
0.0
 11
12.973056
 21
78.538824
 31
0.0
  0
LINE
  5
BF9A
  8
ALPHA
 10
13.973056
 20
80.469704
 30
0.0
 11
12.973056
 21
80.469704
 31
0.0
  0
LINE
  5
BF9B
  8
ALPHA
 10
12.973056
 20
82.178963
 30
0.0
 11
13.973056
 21
82.178963
 31
0.0
  0
LINE
  5
BF9C
  8
ALPHA
 10
12.973056
 20
80.457781
 30
0.0
 11
10.973056
 21
80.457781
 31
0.0
  0
LINE
  5
BF9D
  8
ALPHA
 10
12.973056
 20
82.891074
 30
0.0
 11
10.973056
 21
82.891074
 31
0.0
  0
LINE
  5
C2B0
  8
ALPHA
 10
10.923056
 20
110.628963
 30
0.0
 11
10.923056
 21
101.128963
 31
0.0
  0
ARC
  5
C2B1
  8
ALPHA
 10
34.564102
 20
106.139979
 30
0.0
 40
30.5
 50
172.674405
 51
178.611645
  0
LINE
  5
C2B2
  8
ALPHA
 10
4.313056
 20
101.728963
 30
0.0
 11
4.313056
 21
110.028963
 31
0.0
  0
LINE
  5
C2B3
  8
ALPHA
 10
4.40274
 20
101.628963
 30
0.0
 11
4.40274
 21
110.128963
 31
0.0
  0
LINE
  5
C2B4
  8
ALPHA
 10
5.173056
 20
97.878963
 30
0.0
 11
5.173056
 21
113.878963
 31
0.0
  0
LINE
  5
C2B5
  8
ALPHA
 10
10.673056
 20
113.878963
 30
0.0
 11
10.673056
 21
97.878963
 31
0.0
  0
LINE
  5
C2B6
  8
ALPHA
 10
5.173056
 20
97.878963
 30
0.0
 11
10.673056
 21
97.878963
 31
0.0
  0
LINE
  5
C2B7
  8
ALPHA
 10
4.313056
 20
101.728963
 30
0.0
 11
4.40274
 21
101.728963
 31
0.0
  0
ARC
  5
C2B8
  8
ALPHA
 10
34.564102
 20
105.617948
 30
0.0
 40
30.5
 50
181.388355
 51
187.325595
  0
LINE
  5
C2B9
  8
ALPHA
 10
4.073056
 20
106.878963
 30
0.0
 11
4.073056
 21
104.878963
 31
0.0
  0
ARC
  5
C2BA
  8
ALPHA
 10
34.605182
 20
105.878963
 30
0.0
 40
30.5
 50
188.009903
 51
195.206288
  0
LINE
  5
C2BB
  8
ALPHA
 10
14.473056
 20
107.928963
 30
0.0
 11
14.473056
 21
103.828963
 31
0.0
  0
LINE
  5
C2BC
  8
ALPHA
 10
10.973056
 20
106.426454
 30
0.0
 11
12.973056
 21
106.426454
 31
0.0
  0
LINE
  5
C2BD
  8
ALPHA
 10
10.673056
 20
101.128963
 30
0.0
 11
10.923056
 21
101.128963
 31
0.0
  0
LINE
  5
C2BE
  8
ALPHA
 10
10.923056
 20
102.903963
 30
0.0
 11
10.973056
 21
102.903963
 31
0.0
  0
LINE
  5
C2BF
  8
ALPHA
 10
12.973056
 20
103.828963
 30
0.0
 11
14.473056
 21
103.828963
 31
0.0
  0
LINE
  5
C2C0
  8
ALPHA
 10
12.973056
 20
107.928963
 30
0.0
 11
14.473056
 21
107.928963
 31
0.0
  0
LINE
  5
C2C1
  8
ALPHA
 10
5.173056
 20
113.878963
 30
0.0
 11
10.673056
 21
113.878963
 31
0.0
  0
LINE
  5
C2C2
  8
ALPHA
 10
4.313056
 20
110.028963
 30
0.0
 11
4.40274
 21
110.028963
 31
0.0
  0
ARC
  5
C2C3
  8
ALPHA
 10
34.605182
 20
105.878963
 30
0.0
 40
30.5
 50
164.793712
 51
171.990097
  0
LINE
  5
C2C4
  8
ALPHA
 10
10.923056
 20
108.853963
 30
0.0
 11
10.973056
 21
108.853963
 31
0.0
  0
LINE
  5
C2C5
  8
ALPHA
 10
10.673056
 20
110.628963
 30
0.0
 11
10.923056
 21
110.628963
 31
0.0
  0
LINE
  5
C2C6
  8
ALPHA
 10
12.973056
 20
110.378963
 30
0.0
 11
10.973056
 21
110.378963
 31
0.0
  0
LINE
  5
C300
  8
COTATION1
 10
51.211461
 20
53.028611
 30
0.0
 11
51.211461
 21
58.028611
 31
0.0
  0
VIEWPORT
  5
494D
 67
     1
  8
0
 10
4.995325
 20
6.556512
 30
0.0
 40
22.70986
 41
13.988421
 68
    -1
 69
     1
1001
ACAD
1000
MVIEW
1002
{
1070
    16
1010
0.0
1020
0.0
1030
0.0
1010
0.0
1020
0.0
1030
1.0
1040
0.0
1040
13.988421
1040
4.995325
1040
6.556512
1040
50.0
1040
0.0
1040
0.0
1070
     0
1070
   100
1070
     1
1070
     1
1070
     0
1070
     0
1070
     0
1070
     0
1040
0.0
1040
0.0
1040
0.0
1040
10.0
1040
10.0
1040
10.0
1040
10.0
1070
     0
1002
{
1002
}
1002
}
  0
ENDSEC
  0
EOF
