  0
SECTION
  2
HEADER
  9
$ACADVER
  1
AC1009
  9
$INSBASE
 10
402.590624
 20
-1.041018
 30
0.0
  9
$EXTMIN
 10
-10.323311
 20
3.130895
 30
0.0
  9
$EXTMAX
 10
82.690015
 20
79.508049
 30
0.0
  9
$LIMMIN
 10
-407.970438
 20
-367.832444
  9
$LIMMAX
 10
429.804077
 20
234.370848
  9
$ORTHOMODE
 70
     0
  9
$REGENMODE
 70
     1
  9
$FILLMODE
 70
     1
  9
$QTEXTMODE
 70
     0
  9
$MIRRTEXT
 70
     1
  9
$DRAGMODE
 70
     2
  9
$LTSCALE
 40
10.0
  9
$OSMODE
 70
    39
  9
$ATTMODE
 70
     1
  9
$TEXTSIZE
 40
6.0
  9
$TRACEWID
 40
1.0
  9
$TEXTSTYLE
  7
ROMANS
  9
$CLAYER
  8
ALPHA
  9
$CELTYPE
  6
BYLAYER
  9
$CECOLOR
 62
   256
  9
$DIMSCALE
 40
1.0
  9
$DIMASZ
 40
5.0
  9
$DIMEXO
 40
2.0
  9
$DIMDLI
 40
0.38
  9
$DIMRND
 40
0.0
  9
$DIMDLE
 40
0.0
  9
$DIMEXE
 40
2.5
  9
$DIMTP
 40
0.0
  9
$DIMTM
 40
0.0
  9
$DIMTXT
 40
2.5
  9
$DIMCEN
 40
0.0
  9
$DIMTSZ
 40
0.0
  9
$DIMTOL
 70
     0
  9
$DIMLIM
 70
     0
  9
$DIMTIH
 70
     1
  9
$DIMTOH
 70
     1
  9
$DIMSE1
 70
     0
  9
$DIMSE2
 70
     0
  9
$DIMTAD
 70
     1
  9
$DIMZIN
 70
    12
  9
$DIMBLK
  1
OPEN30
  9
$DIMASO
 70
     1
  9
$DIMSHO
 70
     1
  9
$DIMPOST
  1

  9
$DIMAPOST
  1

  9
$DIMALT
 70
     0
  9
$DIMALTD
 70
     2
  9
$DIMALTF
 40
25.4
  9
$DIMLFAC
 40
1.0
  9
$DIMTOFL
 70
     0
  9
$DIMTVP
 40
0.0
  9
$DIMTIX
 70
     0
  9
$DIMSOXD
 70
     0
  9
$DIMSAH
 70
     0
  9
$DIMBLK1
  1

  9
$DIMBLK2
  1

  9
$DIMSTYLE
  2
SC_DEFAUT
  9
$DIMCLRD
 70
     0
  9
$DIMCLRE
 70
     0
  9
$DIMCLRT
 70
     0
  9
$DIMTFAC
 40
1.0
  9
$DIMGAP
 40
2.0
  9
$LUNITS
 70
     2
  9
$LUPREC
 70
     1
  9
$SKETCHINC
 40
0.1
  9
$FILLETRAD
 40
0.0
  9
$AUNITS
 70
     0
  9
$AUPREC
 70
     0
  9
$MENU
  1
acad
  9
$ELEVATION
 40
0.0
  9
$PELEVATION
 40
0.0
  9
$THICKNESS
 40
0.0
  9
$LIMCHECK
 70
     0
  9
$BLIPMODE
 70
     0
  9
$CHAMFERA
 40
0.0
  9
$CHAMFERB
 40
0.0
  9
$SKPOLY
 70
     0
  9
$TDCREATE
 40
2450373.687919
  9
$TDUPDATE
 40
2452996.496939
  9
$TDINDWG
 40
0.918058
  9
$TDUSRTIMER
 40
0.918058
  9
$USRTIMER
 70
     1
  9
$ANGBASE
 50
0.0
  9
$ANGDIR
 70
     0
  9
$PDMODE
 70
    32
  9
$PDSIZE
 40
0.0
  9
$PLINEWID
 40
0.0
  9
$COORDS
 70
     1
  9
$SPLFRAME
 70
     0
  9
$SPLINETYPE
 70
     6
  9
$SPLINESEGS
 70
     8
  9
$ATTDIA
 70
     0
  9
$ATTREQ
 70
     1
  9
$HANDLING
 70
     1
  9
$HANDSEED
  5
9D2A
  9
$SURFTAB1
 70
     6
  9
$SURFTAB2
 70
     6
  9
$SURFTYPE
 70
     6
  9
$SURFU
 70
     6
  9
$SURFV
 70
     6
  9
$UCSNAME
  2

  9
$UCSORG
 10
0.0
 20
0.0
 30
0.0
  9
$UCSXDIR
 10
1.0
 20
0.0
 30
0.0
  9
$UCSYDIR
 10
0.0
 20
1.0
 30
0.0
  9
$PUCSNAME
  2

  9
$PUCSORG
 10
0.0
 20
0.0
 30
0.0
  9
$PUCSXDIR
 10
1.0
 20
0.0
 30
0.0
  9
$PUCSYDIR
 10
0.0
 20
1.0
 30
0.0
  9
$USERI1
 70
     0
  9
$USERI2
 70
     0
  9
$USERI3
 70
     0
  9
$USERI4
 70
     0
  9
$USERI5
 70
     0
  9
$USERR1
 40
0.0
  9
$USERR2
 40
0.0
  9
$USERR3
 40
0.0
  9
$USERR4
 40
0.0
  9
$USERR5
 40
0.0
  9
$WORLDVIEW
 70
     1
  9
$SHADEDGE
 70
     3
  9
$SHADEDIF
 70
    70
  9
$TILEMODE
 70
     1
  9
$MAXACTVP
 70
    16
  9
$PLIMCHECK
 70
     0
  9
$PEXTMIN
 10
-1.452248
 20
-0.437698
 30
0.0
  9
$PEXTMAX
 10
12.749749
 20
8.310198
 30
0.0
  9
$PLIMMIN
 10
0.0
 20
0.0
  9
$PLIMMAX
 10
12.0
 20
9.0
  9
$UNITMODE
 70
     0
  9
$VISRETAIN
 70
     0
  9
$PLINEGEN
 70
     0
  9
$PSLTSCALE
 70
     0
  0
ENDSEC
  0
SECTION
  2
TABLES
  0
TABLE
  2
VPORT
 70
     2
  0
VPORT
  2
*ACTIVE
 70
     0
 10
0.0
 20
0.0
 11
1.0
 21
1.0
 12
36.164085
 22
41.307613
 13
0.0
 23
0.0
 14
1.0
 24
1.0
 15
10.0
 25
10.0
 16
0.0
 26
0.0
 36
1.0
 17
0.0
 27
0.0
 37
0.0
 40
76.955986
 41
1.466346
 42
50.0
 43
0.0
 44
0.0
 50
0.0
 51
0.0
 71
     0
 72
   100
 73
     1
 74
     0
 75
     0
 76
     0
 77
     0
 78
     0
  0
ENDTAB
  0
TABLE
  2
LTYPE
 70
     2
  0
LTYPE
  2
CONTINUOUS
 70
     0
  3
Solid line
 72
    65
 73
     0
 40
0.0
  0
LTYPE
  2
AXES2
 70
     0
  3
___ _ ___ _ ___ _ ___ _ ___ _ ___ _ ___ _ ___ _
 72
    65
 73
     4
 40
1.125
 49
0.75
 49
-0.125
 49
0.125
 49
-0.125
  0
ENDTAB
  0
TABLE
  2
LAYER
 70
     5
  0
LAYER
  2
0
 70
     0
 62
   255
  6
CONTINUOUS
  0
LAYER
  2
COTATION1
 70
     0
 62
     2
  6
CONTINUOUS
  0
LAYER
  2
AXE
 70
     0
 62
    80
  6
AXES2
  0
LAYER
  2
DEFPOINTS
 70
     0
 62
     7
  6
CONTINUOUS
  0
LAYER
  2
ALPHA
 70
     0
 62
   254
  6
CONTINUOUS
  0
ENDTAB
  0
TABLE
  2
STYLE
 70
     2
  0
STYLE
  2
ROMANS
 70
     0
 40
0.0
 41
1.0
 50
0.0
 71
     0
 42
6.0
  3
romans
  4

  0
STYLE
  2
STANDARD
 70
     0
 40
0.0
 41
1.0
 50
0.0
 71
     0
 42
0.2
  3
txt
  4

  0
ENDTAB
  0
TABLE
  2
VIEW
 70
     0
  0
ENDTAB
  0
TABLE
  2
UCS
 70
     0
  0
ENDTAB
  0
TABLE
  2
APPID
 70
     1
  0
APPID
  2
ACAD
 70
     0
  0
ENDTAB
  0
TABLE
  2
DIMSTYLE
 70
     2
  0
DIMSTYLE
  2
SC_DEFAUT
 70
     0
  3

  4

  5
OPEN30
  6

  7

 40
1.0
 41
5.0
 42
2.0
 43
0.38
 44
2.5
 45
0.0
 46
0.0
 47
0.0
 48
0.0
140
2.5
141
0.0
142
0.0
143
25.4
144
1.0
145
0.0
146
1.0
147
2.0
 71
     0
 72
     0
 73
     1
 74
     1
 75
     0
 76
     0
 77
     1
 78
    12
170
     0
171
     2
172
     0
173
     0
174
     0
175
     0
176
     0
177
     0
178
     0
  0
DIMSTYLE
  2
STANDARD
 70
     0
  3

  4

  5

  6

  7

 40
1.0
 41
0.18
 42
0.0625
 43
0.38
 44
0.18
 45
0.0
 46
0.0
 47
0.0
 48
0.0
140
0.18
141
0.09
142
0.0
143
25.4
144
1.0
145
0.0
146
1.0
147
0.09
 71
     0
 72
     0
 73
     1
 74
     1
 75
     0
 76
     0
 77
     0
 78
     0
170
     0
171
     2
172
     0
173
     0
174
     0
175
     0
176
     0
177
     0
178
     0
  0
ENDTAB
  0
ENDSEC
  0
SECTION
  2
BLOCKS
  0
BLOCK
  8
0
  2
$MODEL_SPACE
 70
     0
 10
0.0
 20
0.0
 30
0.0
  3
$MODEL_SPACE
  1

  0
ENDBLK
  5
9D23
  8
0
  0
BLOCK
 67
     1
  8
0
  2
$PAPER_SPACE
 70
     0
 10
0.0
 20
0.0
 30
0.0
  3
$PAPER_SPACE
  1

  0
ENDBLK
  5
9D21
 67
     1
  8
0
  0
BLOCK
  8
0
  2
COTE
 70
     0
 10
0.0
 20
0.0
 30
0.0
  3
COTE
  1

  0
ENDBLK
  5
F
  8
0
  0
BLOCK
  8
0
  2
FOND
 70
     0
 10
0.0
 20
0.0
 30
0.0
  3
FOND
  1

  0
ENDBLK
  5
75
  8
0
  0
BLOCK
  8
0
  2
_OPEN30
 70
     0
 10
0.0
 20
0.0
 30
0.0
  3
_OPEN30
  1

  0
LINE
  5
4B05
  8
COTATION1
 62
     0
 10
-1.0
 20
0.267949
 30
0.0
 11
0.0
 21
0.0
 31
0.0
1001
ACAD
1000
RTLwPs
1070
   158
  0
LINE
  5
4B06
  8
COTATION1
 62
     0
 10
0.0
 20
0.0
 30
0.0
 11
-1.0
 21
-0.267949
 31
0.0
1001
ACAD
1000
RTLwPs
1070
   158
  0
LINE
  5
4B07
  8
COTATION1
 62
     0
 10
0.0
 20
0.0
 30
0.0
 11
-1.0
 21
0.0
 31
0.0
1001
ACAD
1000
RTLwPs
1070
   158
  0
ENDBLK
  5
4B09
  8
0
  0
BLOCK
  8
0
  2
*D3
 70
     1
 10
0.0
 20
0.0
 30
0.0
  3
*D3
  1

  0
LINE
  5
9C63
  8
COTATION1
 62
     0
 10
50.264607
 20
57.008049
 30
0.0
 11
50.264607
 21
67.508049
 31
0.0
1001
ACAD
1000
RTLwPs
1070
   158
  0
LINE
  5
9C64
  8
COTATION1
 62
     0
 10
60.141531
 20
45.008049
 30
0.0
 11
60.141531
 21
67.508049
 31
0.0
1001
ACAD
1000
RTLwPs
1070
   158
  0
LINE
  5
9C65
  8
COTATION1
 62
     0
 10
45.264607
 20
65.008049
 30
0.0
 11
40.264607
 21
65.008049
 31
0.0
1001
ACAD
1000
RTLwPs
1070
   158
  0
LINE
  5
9C66
  8
COTATION1
 62
     0
 10
65.141531
 20
65.008049
 30
0.0
 11
70.141531
 21
65.008049
 31
0.0
1001
ACAD
1000
RTLwPs
1070
   158
  0
INSERT
  5
9C67
  8
COTATION1
 62
     0
  2
_OPEN30
 10
50.264607
 20
65.008049
 30
0.0
 41
5.0
 42
5.0
 43
5.0
1001
ACAD
1000
RTLwPs
1070
   158
  0
INSERT
  5
9C68
  8
COTATION1
 62
     0
  2
_OPEN30
 10
60.141531
 20
65.008049
 30
0.0
 41
5.0
 42
5.0
 43
5.0
 50
180.0
1001
ACAD
1000
RTLwPs
1070
   158
  0
TEXT
  5
9C69
  8
COTATION1
 62
     0
 10
52.286402
 20
67.008049
 30
0.0
 40
2.5
  1
9.9
1001
ACAD
1000
MTEXTBEGIN
1070
    73
1070
     1
1070
    44
1040
1.0
1070
    74
1070
     0
1000
MTEXTEND
  0
POINT
  5
9C6A
  8
DEFPOINTS
 62
     0
 10
50.264607
 20
55.008049
 30
0.0
  0
POINT
  5
9C6B
  8
DEFPOINTS
 62
     0
 10
60.141531
 20
43.008049
 30
0.0
  0
POINT
  5
9C6C
  8
DEFPOINTS
 62
     0
 10
60.141531
 20
65.008049
 30
0.0
  0
ENDBLK
  5
7F3E
  8
0
  0
BLOCK
  8
0
  2
*D4
 70
     1
 10
0.0
 20
0.0
 30
0.0
  3
*D4
  1

  0
LINE
  5
9C50
  8
COTATION1
 62
     0
 10
51.141531
 20
50.008049
 30
0.0
 11
22.964607
 21
50.008049
 31
0.0
1001
ACAD
1000
RTLwPs
1070
   158
  0
LINE
  5
9C51
  8
COTATION1
 62
     0
 10
38.264607
 20
21.430895
 30
0.0
 11
22.964607
 21
21.430895
 31
0.0
1001
ACAD
1000
RTLwPs
1070
   158
  0
LINE
  5
9C52
  8
COTATION1
 62
     0
 10
25.464607
 20
45.008049
 30
0.0
 11
25.464607
 21
38.969472
 31
0.0
1001
ACAD
1000
RTLwPs
1070
   158
  0
LINE
  5
9C53
  8
COTATION1
 62
     0
 10
25.464607
 20
26.430895
 30
0.0
 11
25.464607
 21
32.469472
 31
0.0
1001
ACAD
1000
RTLwPs
1070
   158
  0
TEXT
  5
9C54
  8
COTATION1
 62
     0
 10
21.29794
 20
34.469472
 30
0.0
 40
2.5
  1
28.6
1001
ACAD
1000
MTEXTBEGIN
1070
    73
1070
     1
1070
    44
1040
1.0
1070
    74
1070
     0
1000
MTEXTEND
  0
INSERT
  5
9C55
  8
COTATION1
 62
     0
  2
_OPEN30
 10
25.464607
 20
50.008049
 30
0.0
 41
5.0
 42
5.0
 43
5.0
 50
90.0
1001
ACAD
1000
RTLwPs
1070
   158
  0
INSERT
  5
9C56
  8
COTATION1
 62
     0
  2
_OPEN30
 10
25.464607
 20
21.430895
 30
0.0
 41
5.0
 42
5.0
 43
5.0
 50
270.0
1001
ACAD
1000
RTLwPs
1070
   158
  0
POINT
  5
9C57
  8
DEFPOINTS
 62
     0
 10
53.141531
 20
50.008049
 30
0.0
  0
POINT
  5
9C58
  8
DEFPOINTS
 62
     0
 10
40.264607
 20
21.430895
 30
0.0
  0
POINT
  5
9C59
  8
DEFPOINTS
 62
     0
 10
25.464607
 20
21.430895
 30
0.0
  0
ENDBLK
  5
7F4B
  8
0
  0
BLOCK
  8
0
  2
*D5
 70
     1
 10
0.0
 20
0.0
 30
0.0
  3
*D5
  1

  0
LINE
  5
9C6D
  8
COTATION1
 62
     0
 10
55.141531
 20
50.008049
 30
0.0
 11
81.440015
 21
50.008049
 31
0.0
1001
ACAD
1000
RTLwPs
1070
   158
  0
LINE
  5
9C6E
  8
COTATION1
 62
     0
 10
58.114573
 20
13.130895
 30
0.0
 11
81.440015
 21
13.130895
 31
0.0
1001
ACAD
1000
RTLwPs
1070
   158
  0
LINE
  5
9C6F
  8
COTATION1
 62
     0
 10
78.940015
 20
45.008049
 30
0.0
 11
78.940015
 21
34.819472
 31
0.0
1001
ACAD
1000
RTLwPs
1070
   158
  0
LINE
  5
9C70
  8
COTATION1
 62
     0
 10
78.940015
 20
18.130895
 30
0.0
 11
78.940015
 21
28.319472
 31
0.0
1001
ACAD
1000
RTLwPs
1070
   158
  0
TEXT
  5
9C71
  8
COTATION1
 62
     0
 10
74.832872
 20
30.319472
 30
0.0
 40
2.5
  1
36.9
1001
ACAD
1000
MTEXTBEGIN
1070
    73
1070
     1
1070
    44
1040
1.0
1070
    74
1070
     0
1000
MTEXTEND
  0
INSERT
  5
9C72
  8
COTATION1
 62
     0
  2
_OPEN30
 10
78.940015
 20
50.008049
 30
0.0
 41
5.0
 42
5.0
 43
5.0
 50
90.0
1001
ACAD
1000
RTLwPs
1070
   158
  0
INSERT
  5
9C73
  8
COTATION1
 62
     0
  2
_OPEN30
 10
78.940015
 20
13.130895
 30
0.0
 41
5.0
 42
5.0
 43
5.0
 50
270.0
1001
ACAD
1000
RTLwPs
1070
   158
  0
POINT
  5
9C74
  8
DEFPOINTS
 62
     0
 10
53.141531
 20
50.008049
 30
0.0
  0
POINT
  5
9C75
  8
DEFPOINTS
 62
     0
 10
56.114573
 20
13.130895
 30
0.0
  0
POINT
  5
9C76
  8
DEFPOINTS
 62
     0
 10
78.940015
 20
13.130895
 30
0.0
  0
ENDBLK
  5
8EB4
  8
0
  0
BLOCK
  8
0
  2
*D6
 70
     1
 10
0.0
 20
0.0
 30
0.0
  3
*D6
  1

  0
LINE
  5
9C5A
  8
COTATION1
 62
     0
 10
35.464607
 20
32.430895
 30
0.0
 11
35.464607
 21
77.508049
 31
0.0
1001
ACAD
1000
RTLwPs
1070
   158
  0
LINE
  5
9C5B
  8
COTATION1
 62
     0
 10
60.141531
 20
55.008049
 30
0.0
 11
60.141531
 21
77.508049
 31
0.0
1001
ACAD
1000
RTLwPs
1070
   158
  0
LINE
  5
9C5C
  8
COTATION1
 62
     0
 10
40.464607
 20
75.008049
 30
0.0
 11
55.141531
 21
75.008049
 31
0.0
1001
ACAD
1000
RTLwPs
1070
   158
  0
INSERT
  5
9C5D
  8
COTATION1
 62
     0
  2
_OPEN30
 10
35.464607
 20
75.008049
 30
0.0
 41
5.0
 42
5.0
 43
5.0
 50
180.0
1001
ACAD
1000
RTLwPs
1070
   158
  0
INSERT
  5
9C5E
  8
COTATION1
 62
     0
  2
_OPEN30
 10
60.141531
 20
75.008049
 30
0.0
 41
5.0
 42
5.0
 43
5.0
1001
ACAD
1000
RTLwPs
1070
   158
  0
TEXT
  5
9C5F
  8
COTATION1
 62
     0
 10
43.636402
 20
77.008049
 30
0.0
 40
2.5
  1
24.7
1001
ACAD
1000
MTEXTBEGIN
1070
    73
1070
     1
1070
    44
1040
1.0
1070
    74
1070
     0
1000
MTEXTEND
  0
POINT
  5
9C60
  8
DEFPOINTS
 62
     0
 10
35.464607
 20
30.430895
 30
0.0
  0
POINT
  5
9C61
  8
DEFPOINTS
 62
     0
 10
60.141531
 20
53.008049
 30
0.0
  0
POINT
  5
9C62
  8
DEFPOINTS
 62
     0
 10
60.141531
 20
75.008049
 30
0.0
  0
ENDBLK
  5
9BF2
  8
0
  0
ENDSEC
  0
SECTION
  2
ENTITIES
  0
INSERT
  5
A
  8
0
  2
COTE
 10
0.0
 20
0.0
 30
0.0
  0
INSERT
  5
17
  8
0
  2
COTE
 10
284.010391
 20
6.373258
 30
0.0
  0
INSERT
  5
72
  8
0
  2
FOND
 10
0.0
 20
0.0
 30
0.0
  0
DIMENSION
  5
7F30
  8
COTATION1
  2
*D3
 10
60.141531
 20
65.008049
 30
0.0
 11
55.203069
 21
68.258049
 31
0.0
 13
50.264607
 23
55.008049
 33
0.0
 14
60.141531
 24
43.008049
 34
0.0
  0
DIMENSION
  5
7F31
  8
COTATION1
  2
*D4
 10
25.464607
 20
21.430895
 30
0.0
 11
25.464607
 21
35.719472
 31
0.0
 70
   128
 13
53.141531
 23
50.008049
 33
0.0
 14
40.264607
 24
21.430895
 34
0.0
 50
90.0
  0
LINE
  5
8AD3
  8
AXE
 10
50.264607
 20
3.130895
 30
0.0
 11
50.264607
 21
55.008049
 31
0.0
  0
TEXT
  5
8AD4
  8
AXE
 10
45.216988
 20
3.130895
 30
0.0
 40
5.0
  1
Y
 72
     2
 11
49.264607
 21
3.130895
 31
0.0
  0
LINE
  5
8AD5
  8
AXE
 10
37.264607
 20
20.375895
 30
0.0
 11
68.264607
 21
20.375895
 31
0.0
  0
TEXT
  5
8AD6
  8
AXE
 10
64.216988
 20
21.375895
 30
0.0
 40
5.0
  1
X
 72
     2
 11
68.264607
 21
21.375895
 31
0.0
  0
LINE
  5
8B73
  8
COTATION1
 10
2.926689
 20
23.930895
 30
0.0
 11
2.926689
 21
48.889817
 31
0.0
  0
LINE
  5
8B74
  8
COTATION1
 10
-5.173664
 20
21.430895
 30
0.0
 11
39.264607
 21
21.430895
 31
0.0
  0
SOLID
  5
8B75
  8
COTATION1
 10
4.370064
 20
21.430895
 30
0.0
 11
1.483313
 21
21.430895
 31
0.0
 12
2.926689
 22
23.930895
 32
0.0
 13
2.926689
 23
23.930895
 33
0.0
  0
LINE
  5
8B76
  8
COTATION1
 10
-10.323311
 20
53.889817
 30
0.0
 11
16.176689
 21
53.889817
 31
0.0
  0
LINE
  5
8B77
  8
COTATION1
 10
16.176689
 20
48.889817
 30
0.0
 11
-10.323311
 21
48.889817
 31
0.0
  0
TEXT
  5
8B78
  8
COTATION1
 10
-9.073311
 20
50.139817
 30
0.0
 40
2.5
  1
PLANE_TO_LINE_UP
 41
0.626087
  7
STANDARD
 72
     5
 11
14.926689
 21
50.139817
 31
0.0
  0
LINE
  5
8B79
  8
COTATION1
 10
16.176689
 20
53.889817
 30
0.0
 11
16.176689
 21
48.889817
 31
0.0
  0
LINE
  5
8B7A
  8
COTATION1
 10
-10.323311
 20
48.889817
 30
0.0
 11
-10.323311
 21
53.889817
 31
0.0
  0
DIMENSION
  5
8EA7
  8
COTATION1
  2
*D5
 10
78.940015
 20
13.130895
 30
0.0
 11
78.940015
 21
31.569472
 31
0.0
 70
   128
 13
53.141531
 23
50.008049
 33
0.0
 14
56.114573
 24
13.130895
 34
0.0
 50
90.0
  0
ARC
  5
99B4
  8
ALPHA
 10
53.141531
 20
43.008049
 30
0.0
 40
10.0
 50
195.639862
 51
253.010666
  0
ARC
  5
99B5
  8
ALPHA
 10
53.141531
 20
43.008049
 30
0.0
 40
5.590669
 50
283.6542
 51
165.000765
  0
ARC
  5
99B6
  8
ALPHA
 10
53.141531
 20
43.008049
 30
0.0
 40
6.0
 50
277.650712
 51
170.999817
  0
ARC
  5
99B7
  8
ALPHA
 10
53.141531
 20
43.008049
 30
0.0
 40
7.0
 50
267.7342
 51
180.916328
  0
LINE
  5
99B8
  8
ALPHA
 10
48.232927
 20
31.504039
 30
0.0
 11
56.495439
 21
39.574203
 31
0.0
  0
LINE
  5
99B9
  8
ALPHA
 10
43.85597
 20
37.85263
 30
0.0
 11
41.724076
 21
35.770366
 31
0.0
  0
LINE
  5
99BA
  8
ALPHA
 10
49.787624
 20
46.441896
 30
0.0
 11
36.910699
 21
33.864742
 31
0.0
  0
ARC
  5
99BB
  8
ALPHA
 10
40.264607
 20
30.430895
 30
0.0
 40
4.3
 50
0.0
 51
180.0
  0
ARC
  5
99BC
  8
ALPHA
 10
40.264607
 20
30.430895
 30
0.0
 40
4.8
 50
0.0
 51
180.0
  0
ARC
  5
99BD
  8
ALPHA
 10
40.264607
 20
30.430895
 30
0.0
 40
9.0
 50
239.610058
 51
270.0
  0
LINE
  5
99CB
  8
ALPHA
 10
35.964607
 20
30.430895
 30
0.0
 11
35.964607
 21
22.524569
 31
0.0
  0
LINE
  5
99CC
  8
ALPHA
 10
35.464607
 20
30.430895
 30
0.0
 11
35.464607
 21
23.098774
 31
0.0
  0
ARC
  5
99CD
  8
ALPHA
 10
35.964607
 20
23.098774
 30
0.0
 40
0.5
 50
180.0
 51
239.610058
  0
LINE
  5
99CE
  8
ALPHA
 10
35.464607
 20
30.430895
 30
0.0
 11
35.964607
 21
30.430895
 31
0.0
  0
ARC
  5
9A01
  8
ALPHA
 10
49.794138
 20
34.985895
 30
0.0
 40
3.5
 50
269.325264
 51
341.528159
  0
ARC
  5
9A02
  8
ALPHA
 10
51.264607
 20
17.485895
 30
0.0
 40
14.0
 50
80.405932
 51
90.0
  0
LINE
  5
9A03
  8
ALPHA
 10
53.113817
 20
33.87696
 30
0.0
 11
51.916977
 21
35.102326
 31
0.0
  0
LINE
  5
9A04
  8
ALPHA
 10
46.931273
 20
31.290081
 30
0.0
 11
53.59794
 21
31.290081
 31
0.0
  0
LINE
  5
9A05
  8
ALPHA
 10
46.764607
 20
31.092879
 30
0.0
 11
53.764607
 21
31.092879
 31
0.0
  0
LINE
  5
9A06
  8
ALPHA
 10
46.764607
 20
25.330895
 30
0.0
 11
57.764476
 21
25.330895
 31
0.0
  0
LINE
  5
9A07
  8
ALPHA
 10
46.764607
 20
24.830895
 30
0.0
 11
58.264607
 21
24.830895
 31
0.0
  0
LINE
  5
9A08
  8
ALPHA
 10
40.264607
 20
21.430895
 30
0.0
 11
58.264607
 21
21.430895
 31
0.0
  0
LINE
  5
9A09
  8
ALPHA
 10
43.564607
 20
19.320895
 30
0.0
 11
56.964607
 21
19.320895
 31
0.0
  0
LINE
  5
9A0A
  8
ALPHA
 10
56.614607
 20
17.980895
 30
0.0
 11
43.914607
 21
17.980895
 31
0.0
  0
LINE
  5
9A0B
  8
ALPHA
 10
56.614607
 20
16.830895
 30
0.0
 11
43.914607
 21
16.830895
 31
0.0
  0
LINE
  5
9A0C
  8
ALPHA
 10
56.264607
 20
16.730895
 30
0.0
 11
44.264607
 21
16.730895
 31
0.0
  0
LINE
  5
9A0D
  8
ALPHA
 10
56.264607
 20
15.730895
 30
0.0
 11
44.264607
 21
15.730895
 31
0.0
  0
LINE
  5
9A0E
  8
ALPHA
 10
56.614607
 20
15.630895
 30
0.0
 11
43.914607
 21
15.630895
 31
0.0
  0
LINE
  5
9A0F
  8
ALPHA
 10
43.914607
 20
13.630895
 30
0.0
 11
56.614607
 21
13.630895
 31
0.0
  0
LINE
  5
9A10
  8
ALPHA
 10
56.114607
 20
13.130895
 30
0.0
 11
44.414607
 21
13.130895
 31
0.0
  0
LINE
  5
9A11
  8
ALPHA
 10
43.914607
 20
15.630895
 30
0.0
 11
43.914607
 21
13.630895
 31
0.0
  0
ARC
  5
9A12
  8
ALPHA
 10
44.414607
 20
13.630895
 30
0.0
 40
0.5
 50
180.0
 51
270.0
  0
ARC
  5
9A13
  8
ALPHA
 10
46.764607
 20
27.030895
 30
0.0
 40
2.2
 50
180.0
 51
270.0
  0
ARC
  5
9A14
  8
ALPHA
 10
44.364607
 20
15.930895
 30
0.0
 40
0.3
 50
270.0
 51
317.581999
  0
LINE
  5
9A15
  8
ALPHA
 10
44.128358
 20
33.552516
 30
0.0
 11
47.221017
 21
33.516095
 31
0.0
  0
LINE
  5
9A16
  8
ALPHA
 10
43.564607
 20
21.430895
 30
0.0
 11
43.564607
 21
19.320895
 31
0.0
  0
ARC
  5
9A17
  8
ALPHA
 10
44.264607
 20
16.230895
 30
0.0
 40
0.5
 50
90.0
 51
270.0
  0
LINE
  5
9A18
  8
ALPHA
 10
43.914607
 20
17.980895
 30
0.0
 11
43.914607
 21
16.830895
 31
0.0
  0
CIRCLE
  5
9A19
  8
ALPHA
 10
40.264607
 20
30.430895
 30
0.0
 40
1.8
  0
CIRCLE
  5
9A1A
  8
ALPHA
 10
40.264607
 20
30.430895
 30
0.0
 40
3.0
  0
CIRCLE
  5
9A1B
  8
ALPHA
 10
40.264607
 20
30.430895
 30
0.0
 40
1.51906
  0
CIRCLE
  5
9A1C
  8
ALPHA
 10
40.264607
 20
30.430895
 30
0.0
 40
1.75
  0
CIRCLE
  5
9A1D
  8
ALPHA
 10
40.264607
 20
30.430895
 30
0.0
 40
1.05
  0
ARC
  5
9A1E
  8
ALPHA
 10
42.073441
 20
35.412674
 30
0.0
 40
0.5
 50
134.325264
 51
250.052012
  0
ARC
  5
9A1F
  8
ALPHA
 10
44.134246
 20
34.052482
 30
0.0
 40
0.5
 50
223.136787
 51
269.325264
  0
ARC
  5
9A20
  8
ALPHA
 10
46.764607
 20
27.030895
 30
0.0
 40
1.7
 50
180.0
 51
270.0
  0
LINE
  5
9A21
  8
ALPHA
 10
46.764607
 20
25.330895
 30
0.0
 11
46.764607
 21
31.092879
 31
0.0
  0
LINE
  5
9A22
  8
ALPHA
 10
48.340611
 20
21.430895
 30
0.0
 11
48.340611
 21
19.320895
 31
0.0
  0
LINE
  5
9A23
  8
ALPHA
 10
48.148061
 20
21.430895
 30
0.0
 11
48.148061
 21
19.320895
 31
0.0
  0
LINE
  5
9A24
  8
ALPHA
 10
47.73822
 20
19.320895
 30
0.0
 11
47.73822
 21
21.430895
 31
0.0
  0
LINE
  5
9A25
  8
ALPHA
 10
47.529171
 20
19.320895
 30
0.0
 11
47.529171
 21
21.430895
 31
0.0
  0
LINE
  5
9A26
  8
ALPHA
 10
47.336887
 20
19.320895
 30
0.0
 11
47.336887
 21
21.430895
 31
0.0
  0
LINE
  5
9A27
  8
ALPHA
 10
47.216205
 20
19.320895
 30
0.0
 11
47.216205
 21
21.430895
 31
0.0
  0
LINE
  5
9A28
  8
ALPHA
 10
47.191958
 20
19.320895
 30
0.0
 11
47.191958
 21
21.430895
 31
0.0
  0
LINE
  5
9A29
  8
ALPHA
 10
47.087002
 20
19.320895
 30
0.0
 11
47.087002
 21
21.430895
 31
0.0
  0
LINE
  5
9A2A
  8
ALPHA
 10
44.764607
 20
19.320895
 30
0.0
 11
44.764607
 21
17.980895
 31
0.0
  0
LINE
  5
9A2B
  8
ALPHA
 10
44.664607
 20
16.830895
 30
0.0
 11
44.664607
 21
16.730895
 31
0.0
  0
LINE
  5
9A2C
  8
ALPHA
 10
46.764607
 20
25.330895
 30
0.0
 11
46.764607
 21
24.830895
 31
0.0
  0
LINE
  5
9A2D
  8
ALPHA
 10
52.381153
 20
19.320895
 30
0.0
 11
52.381153
 21
21.430895
 31
0.0
  0
LINE
  5
9A2E
  8
ALPHA
 10
52.188602
 20
19.320895
 30
0.0
 11
52.188602
 21
21.430895
 31
0.0
  0
LINE
  5
9A2F
  8
ALPHA
 10
51.807281
 20
21.430895
 30
0.0
 11
51.807281
 21
19.320895
 31
0.0
  0
LINE
  5
9A30
  8
ALPHA
 10
51.662588
 20
21.430895
 30
0.0
 11
51.662588
 21
19.320895
 31
0.0
  0
LINE
  5
9A31
  8
ALPHA
 10
51.49543
 20
19.320895
 30
0.0
 11
51.49543
 21
21.430895
 31
0.0
  0
LINE
  5
9A32
  8
ALPHA
 10
51.333578
 20
19.320895
 30
0.0
 11
51.333578
 21
21.430895
 31
0.0
  0
LINE
  5
9A33
  8
ALPHA
 10
51.127232
 20
19.320895
 30
0.0
 11
51.127232
 21
21.430895
 31
0.0
  0
LINE
  5
9A34
  8
ALPHA
 10
50.935239
 20
19.320895
 30
0.0
 11
50.935239
 21
21.430895
 31
0.0
  0
LINE
  5
9A35
  8
ALPHA
 10
50.636563
 20
19.320895
 30
0.0
 11
50.636563
 21
21.430895
 31
0.0
  0
LINE
  5
9A36
  8
ALPHA
 10
50.461993
 20
19.320895
 30
0.0
 11
50.461993
 21
21.430895
 31
0.0
  0
LINE
  5
9A37
  8
ALPHA
 10
50.067221
 20
21.430895
 30
0.0
 11
50.067221
 21
19.320895
 31
0.0
  0
LINE
  5
9A38
  8
ALPHA
 10
49.89265
 20
21.430895
 30
0.0
 11
49.89265
 21
19.320895
 31
0.0
  0
LINE
  5
9A39
  8
ALPHA
 10
49.593974
 20
19.320895
 30
0.0
 11
49.593974
 21
21.430895
 31
0.0
  0
LINE
  5
9A3A
  8
ALPHA
 10
49.401981
 20
19.320895
 30
0.0
 11
49.401981
 21
21.430895
 31
0.0
  0
LINE
  5
9A3B
  8
ALPHA
 10
49.195635
 20
19.320895
 30
0.0
 11
49.195635
 21
21.430895
 31
0.0
  0
LINE
  5
9A3C
  8
ALPHA
 10
49.033783
 20
19.320895
 30
0.0
 11
49.033783
 21
21.430895
 31
0.0
  0
LINE
  5
9A3D
  8
ALPHA
 10
48.866626
 20
19.320895
 30
0.0
 11
48.866626
 21
21.430895
 31
0.0
  0
LINE
  5
9A3E
  8
ALPHA
 10
48.721932
 20
19.320895
 30
0.0
 11
48.721932
 21
21.430895
 31
0.0
  0
LINE
  5
9A3F
  8
ALPHA
 10
50.264607
 20
21.430895
 30
0.0
 11
50.264607
 21
25.330895
 31
0.0
  0
ARC
  5
9A40
  8
ALPHA
 10
49.264607
 20
17.485895
 30
0.0
 40
14.0
 50
90.0
 51
99.594068
  0
LINE
  5
9A41
  8
ALPHA
 10
46.075544
 20
31.529446
 30
0.0
 11
49.752922
 21
31.486138
 31
0.0
  0
ARC
  5
9A42
  8
ALPHA
 10
46.063768
 20
30.529515
 30
0.0
 40
1.0
 50
89.325264
 51
180.99741
  0
LINE
  5
9A43
  8
ALPHA
 10
44.564607
 20
30.430895
 30
0.0
 11
45.064607
 21
30.430895
 31
0.0
  0
LINE
  5
9A44
  8
ALPHA
 10
45.064607
 20
27.030895
 30
0.0
 11
45.064607
 21
30.430895
 31
0.0
  0
LINE
  5
9A45
  8
ALPHA
 10
44.564607
 20
27.030895
 30
0.0
 11
44.564607
 21
30.430895
 31
0.0
  0
LINE
  5
9A46
  8
ALPHA
 10
44.564607
 20
27.030895
 30
0.0
 11
45.064607
 21
27.030895
 31
0.0
  0
ARC
  5
9A47
  8
ALPHA
 10
46.964607
 20
31.092879
 30
0.0
 40
0.2
 50
99.594068
 51
180.0
  0
ARC
  5
9A48
  8
ALPHA
 10
47.419497
 20
34.204168
 30
0.0
 40
0.5
 50
314.325264
 51
56.978366
  0
ARC
  5
9A49
  8
ALPHA
 10
47.226905
 20
34.01606
 30
0.0
 40
0.5
 50
269.325264
 51
314.325264
  0
LINE
  5
9A4A
  8
ALPHA
 10
47.57627
 20
33.658367
 30
0.0
 11
47.768862
 21
33.846476
 31
0.0
  0
LINE
  5
9A4B
  8
ALPHA
 10
49.752922
 20
31.485895
 30
0.0
 11
51.264607
 21
31.485895
 31
0.0
  0
LINE
  5
9A4C
  8
ALPHA
 10
49.264607
 20
31.485895
 30
0.0
 11
49.696542
 21
31.485895
 31
0.0
  0
LINE
  5
9A4D
  8
ALPHA
 10
56.614607
 20
15.630895
 30
0.0
 11
56.614607
 21
13.630895
 31
0.0
  0
ARC
  5
9A4E
  8
ALPHA
 10
56.114607
 20
13.630895
 30
0.0
 40
0.5
 50
270.0
 51
0.0
  0
LINE
  5
9A4F
  8
ALPHA
 10
53.764607
 20
25.330895
 30
0.0
 11
53.764607
 21
31.092879
 31
0.0
  0
LINE
  5
9A50
  8
ALPHA
 10
53.442211
 20
21.430895
 30
0.0
 11
53.442211
 21
19.320895
 31
0.0
  0
LINE
  5
9A51
  8
ALPHA
 10
53.337255
 20
21.430895
 30
0.0
 11
53.337255
 21
19.320895
 31
0.0
  0
LINE
  5
9A52
  8
ALPHA
 10
53.313008
 20
19.320895
 30
0.0
 11
53.313008
 21
21.430895
 31
0.0
  0
LINE
  5
9A53
  8
ALPHA
 10
53.192326
 20
19.320895
 30
0.0
 11
53.192326
 21
21.430895
 31
0.0
  0
LINE
  5
9A54
  8
ALPHA
 10
53.000042
 20
19.320895
 30
0.0
 11
53.000042
 21
21.430895
 31
0.0
  0
LINE
  5
9A55
  8
ALPHA
 10
52.790993
 20
19.320895
 30
0.0
 11
52.790993
 21
21.430895
 31
0.0
  0
ARC
  5
9A56
  8
ALPHA
 10
56.164607
 20
15.930895
 30
0.0
 40
0.3
 50
222.418001
 51
270.0
  0
ARC
  5
9A57
  8
ALPHA
 10
56.264607
 20
16.230895
 30
0.0
 40
0.5
 50
270.0
 51
90.0
  0
LINE
  5
9A58
  8
ALPHA
 10
56.614607
 20
17.980895
 30
0.0
 11
56.614607
 21
16.830895
 31
0.0
  0
LINE
  5
9A59
  8
ALPHA
 10
55.864607
 20
16.830895
 30
0.0
 11
55.864607
 21
16.730895
 31
0.0
  0
LINE
  5
9A5A
  8
ALPHA
 10
55.764607
 20
19.320895
 30
0.0
 11
55.764607
 21
17.980895
 31
0.0
  0
LINE
  5
9A5B
  8
ALPHA
 10
56.964607
 20
21.430895
 30
0.0
 11
56.964607
 21
19.320895
 31
0.0
  0
LINE
  5
9A5C
  8
ALPHA
 10
58.264607
 20
21.430895
 30
0.0
 11
58.264607
 21
24.830895
 31
0.0
  0
LINE
  5
9A5D
  8
ALPHA
 10
58.264607
 20
24.830895
 30
0.0
 11
57.764607
 21
25.330895
 31
0.0
  0
ARC
  5
9A5E
  8
ALPHA
 10
53.564607
 20
31.092879
 30
0.0
 40
0.2
 50
0.0
 51
80.405932
  0
CIRCLE
  5
9A5F
  8
ALPHA
 10
53.141531
 20
43.008049
 30
0.0
 40
3.0
  0
ARC
  5
9A60
  8
ALPHA
 10
53.141531
 20
43.008049
 30
0.0
 40
4.8
 50
314.325264
 51
134.325264
  0
ARC
  5
9A61
  8
ALPHA
 10
53.141531
 20
43.008049
 30
0.0
 40
5.300891
 50
289.535268
 51
159.115079
  0
CIRCLE
  5
9A62
  8
ALPHA
 10
53.141531
 20
43.008049
 30
0.0
 40
1.76906
  0
CIRCLE
  5
9A63
  8
ALPHA
 10
53.141531
 20
43.008049
 30
0.0
 40
2.0
  0
CIRCLE
  5
9A64
  8
ALPHA
 10
53.141531
 20
43.008049
 30
0.0
 40
1.3
  0
ARC
  5
9A65
  8
ALPHA
 10
44.205335
 20
37.494938
 30
0.0
 40
0.5
 50
31.672163
 51
134.325264
  0
DIMENSION
  5
9BE6
  8
COTATION1
  2
*D6
 10
60.141531
 20
75.008049
 30
0.0
 11
47.803069
 21
78.258049
 31
0.0
 13
35.464607
 23
30.430895
 33
0.0
 14
60.141531
 24
53.008049
 34
0.0
  0
VIEWPORT
  5
494D
 67
     1
  8
0
 10
4.995325
 20
6.556512
 30
0.0
 40
22.70986
 41
13.988421
 68
    -1
 69
     1
1001
ACAD
1000
MVIEW
1002
{
1070
    16
1010
0.0
1020
0.0
1030
0.0
1010
0.0
1020
0.0
1030
1.0
1040
0.0
1040
13.988421
1040
4.995325
1040
6.556512
1040
50.0
1040
0.0
1040
0.0
1070
     0
1070
   100
1070
     1
1070
     1
1070
     0
1070
     0
1070
     0
1070
     0
1040
0.0
1040
0.0
1040
0.0
1040
10.0
1040
10.0
1040
10.0
1040
10.0
1070
     0
1002
{
1002
}
1002
}
  0
ENDSEC
  0
EOF
