  0
SECTION
  2
HEADER
  9
$ACADVER
  1
AC1009
  9
$INSBASE
 10
402.590624
 20
-1.041018
 30
0.0
  9
$EXTMIN
 10
107.90771
 20
80.139091
 30
0.0
  9
$EXTMAX
 10
201.32955
 20
135.039091
 30
0.0
  9
$LIMMIN
 10
-407.970438
 20
-367.832444
  9
$LIMMAX
 10
429.804077
 20
234.370848
  9
$ORTHOMODE
 70
     1
  9
$REGENMODE
 70
     1
  9
$FILLMODE
 70
     1
  9
$QTEXTMODE
 70
     0
  9
$MIRRTEXT
 70
     1
  9
$DRAGMODE
 70
     2
  9
$LTSCALE
 40
10.0
  9
$OSMODE
 70
    39
  9
$ATTMODE
 70
     1
  9
$TEXTSIZE
 40
6.0
  9
$TRACEWID
 40
1.0
  9
$TEXTSTYLE
  7
ROMANS
  9
$CLAYER
  8
ALPHA
  9
$CELTYPE
  6
BYLAYER
  9
$CECOLOR
 62
   256
  9
$DIMSCALE
 40
1.0
  9
$DIMASZ
 40
5.0
  9
$DIMEXO
 40
2.0
  9
$DIMDLI
 40
0.38
  9
$DIMRND
 40
0.0
  9
$DIMDLE
 40
0.0
  9
$DIMEXE
 40
2.5
  9
$DIMTP
 40
0.0
  9
$DIMTM
 40
0.0
  9
$DIMTXT
 40
2.5
  9
$DIMCEN
 40
0.0
  9
$DIMTSZ
 40
0.0
  9
$DIMTOL
 70
     0
  9
$DIMLIM
 70
     0
  9
$DIMTIH
 70
     1
  9
$DIMTOH
 70
     1
  9
$DIMSE1
 70
     0
  9
$DIMSE2
 70
     0
  9
$DIMTAD
 70
     1
  9
$DIMZIN
 70
    12
  9
$DIMBLK
  1
OPEN30
  9
$DIMASO
 70
     1
  9
$DIMSHO
 70
     1
  9
$DIMPOST
  1

  9
$DIMAPOST
  1

  9
$DIMALT
 70
     0
  9
$DIMALTD
 70
     2
  9
$DIMALTF
 40
25.4
  9
$DIMLFAC
 40
1.0
  9
$DIMTOFL
 70
     0
  9
$DIMTVP
 40
0.0
  9
$DIMTIX
 70
     0
  9
$DIMSOXD
 70
     0
  9
$DIMSAH
 70
     0
  9
$DIMBLK1
  1

  9
$DIMBLK2
  1

  9
$DIMSTYLE
  2
SC_DEFAUT
  9
$DIMCLRD
 70
     0
  9
$DIMCLRE
 70
     0
  9
$DIMCLRT
 70
     0
  9
$DIMTFAC
 40
1.0
  9
$DIMGAP
 40
2.0
  9
$LUNITS
 70
     2
  9
$LUPREC
 70
     1
  9
$SKETCHINC
 40
0.1
  9
$FILLETRAD
 40
0.0
  9
$AUNITS
 70
     0
  9
$AUPREC
 70
     0
  9
$MENU
  1
acad
  9
$ELEVATION
 40
0.0
  9
$PELEVATION
 40
0.0
  9
$THICKNESS
 40
0.0
  9
$LIMCHECK
 70
     0
  9
$BLIPMODE
 70
     0
  9
$CHAMFERA
 40
0.0
  9
$CHAMFERB
 40
0.0
  9
$SKPOLY
 70
     0
  9
$TDCREATE
 40
2450373.687919
  9
$TDUPDATE
 40
2452996.62893
  9
$TDINDWG
 40
1.025493
  9
$TDUSRTIMER
 40
1.025493
  9
$USRTIMER
 70
     1
  9
$ANGBASE
 50
0.0
  9
$ANGDIR
 70
     0
  9
$PDMODE
 70
    32
  9
$PDSIZE
 40
0.0
  9
$PLINEWID
 40
0.0
  9
$COORDS
 70
     1
  9
$SPLFRAME
 70
     0
  9
$SPLINETYPE
 70
     6
  9
$SPLINESEGS
 70
     8
  9
$ATTDIA
 70
     0
  9
$ATTREQ
 70
     1
  9
$HANDLING
 70
     1
  9
$HANDSEED
  5
8F33
  9
$SURFTAB1
 70
     6
  9
$SURFTAB2
 70
     6
  9
$SURFTYPE
 70
     6
  9
$SURFU
 70
     6
  9
$SURFV
 70
     6
  9
$UCSNAME
  2

  9
$UCSORG
 10
0.0
 20
0.0
 30
0.0
  9
$UCSXDIR
 10
1.0
 20
0.0
 30
0.0
  9
$UCSYDIR
 10
0.0
 20
1.0
 30
0.0
  9
$PUCSNAME
  2

  9
$PUCSORG
 10
0.0
 20
0.0
 30
0.0
  9
$PUCSXDIR
 10
1.0
 20
0.0
 30
0.0
  9
$PUCSYDIR
 10
0.0
 20
1.0
 30
0.0
  9
$USERI1
 70
     0
  9
$USERI2
 70
     0
  9
$USERI3
 70
     0
  9
$USERI4
 70
     0
  9
$USERI5
 70
     0
  9
$USERR1
 40
0.0
  9
$USERR2
 40
0.0
  9
$USERR3
 40
0.0
  9
$USERR4
 40
0.0
  9
$USERR5
 40
0.0
  9
$WORLDVIEW
 70
     1
  9
$SHADEDGE
 70
     3
  9
$SHADEDIF
 70
    70
  9
$TILEMODE
 70
     1
  9
$MAXACTVP
 70
    16
  9
$PLIMCHECK
 70
     0
  9
$PEXTMIN
 10
-1.452248
 20
-0.437698
 30
0.0
  9
$PEXTMAX
 10
12.749749
 20
8.310198
 30
0.0
  9
$PLIMMIN
 10
0.0
 20
0.0
  9
$PLIMMAX
 10
12.0
 20
9.0
  9
$UNITMODE
 70
     0
  9
$VISRETAIN
 70
     0
  9
$PLINEGEN
 70
     0
  9
$PSLTSCALE
 70
     0
  0
ENDSEC
  0
SECTION
  2
TABLES
  0
TABLE
  2
VPORT
 70
     2
  0
VPORT
  2
*ACTIVE
 70
     0
 10
0.0
 20
0.0
 11
1.0
 21
1.0
 12
154.634473
 22
107.582504
 13
0.0
 23
0.0
 14
1.0
 24
1.0
 15
10.0
 25
10.0
 16
0.0
 26
0.0
 36
1.0
 17
0.0
 27
0.0
 37
0.0
 40
64.084518
 41
1.466346
 42
50.0
 43
0.0
 44
0.0
 50
0.0
 51
0.0
 71
     0
 72
   100
 73
     1
 74
     0
 75
     0
 76
     0
 77
     0
 78
     0
  0
ENDTAB
  0
TABLE
  2
LTYPE
 70
     2
  0
LTYPE
  2
CONTINUOUS
 70
     0
  3
Solid line
 72
    65
 73
     0
 40
0.0
  0
LTYPE
  2
AXES2
 70
     0
  3
___ _ ___ _ ___ _ ___ _ ___ _ ___ _ ___ _ ___ _
 72
    65
 73
     4
 40
1.125
 49
0.75
 49
-0.125
 49
0.125
 49
-0.125
  0
ENDTAB
  0
TABLE
  2
LAYER
 70
     5
  0
LAYER
  2
0
 70
     0
 62
   255
  6
CONTINUOUS
  0
LAYER
  2
COTATION1
 70
     0
 62
     2
  6
CONTINUOUS
  0
LAYER
  2
AXE
 70
     0
 62
    80
  6
AXES2
  0
LAYER
  2
DEFPOINTS
 70
     0
 62
     7
  6
CONTINUOUS
  0
LAYER
  2
ALPHA
 70
     0
 62
   254
  6
CONTINUOUS
  0
ENDTAB
  0
TABLE
  2
STYLE
 70
     2
  0
STYLE
  2
ROMANS
 70
     0
 40
0.0
 41
1.0
 50
0.0
 71
     0
 42
6.0
  3
romans
  4

  0
STYLE
  2
STANDARD
 70
     0
 40
0.0
 41
1.0
 50
0.0
 71
     0
 42
0.2
  3
txt
  4

  0
ENDTAB
  0
TABLE
  2
VIEW
 70
     0
  0
ENDTAB
  0
TABLE
  2
UCS
 70
     0
  0
ENDTAB
  0
TABLE
  2
APPID
 70
     1
  0
APPID
  2
ACAD
 70
     0
  0
ENDTAB
  0
TABLE
  2
DIMSTYLE
 70
     2
  0
DIMSTYLE
  2
SC_DEFAUT
 70
     0
  3

  4

  5
OPEN30
  6

  7

 40
1.0
 41
5.0
 42
2.0
 43
0.38
 44
2.5
 45
0.0
 46
0.0
 47
0.0
 48
0.0
140
2.5
141
0.0
142
0.0
143
25.4
144
1.0
145
0.0
146
1.0
147
2.0
 71
     0
 72
     0
 73
     1
 74
     1
 75
     0
 76
     0
 77
     1
 78
    12
170
     0
171
     2
172
     0
173
     0
174
     0
175
     0
176
     0
177
     0
178
     0
  0
DIMSTYLE
  2
STANDARD
 70
     0
  3

  4

  5

  6

  7

 40
1.0
 41
0.18
 42
0.0625
 43
0.38
 44
0.18
 45
0.0
 46
0.0
 47
0.0
 48
0.0
140
0.18
141
0.09
142
0.0
143
25.4
144
1.0
145
0.0
146
1.0
147
0.09
 71
     0
 72
     0
 73
     1
 74
     1
 75
     0
 76
     0
 77
     0
 78
     0
170
     0
171
     2
172
     0
173
     0
174
     0
175
     0
176
     0
177
     0
178
     0
  0
ENDTAB
  0
ENDSEC
  0
SECTION
  2
BLOCKS
  0
BLOCK
  8
0
  2
$MODEL_SPACE
 70
     0
 10
0.0
 20
0.0
 30
0.0
  3
$MODEL_SPACE
  1

  0
ENDBLK
  5
8EB6
  8
0
  0
BLOCK
 67
     1
  8
0
  2
$PAPER_SPACE
 70
     0
 10
0.0
 20
0.0
 30
0.0
  3
$PAPER_SPACE
  1

  0
ENDBLK
  5
8EB4
 67
     1
  8
0
  0
BLOCK
  8
0
  2
COTE
 70
     0
 10
0.0
 20
0.0
 30
0.0
  3
COTE
  1

  0
ENDBLK
  5
F
  8
0
  0
BLOCK
  8
0
  2
FOND
 70
     0
 10
0.0
 20
0.0
 30
0.0
  3
FOND
  1

  0
ENDBLK
  5
75
  8
0
  0
BLOCK
  8
0
  2
_OPEN30
 70
     0
 10
0.0
 20
0.0
 30
0.0
  3
_OPEN30
  1

  0
LINE
  5
4B05
  8
COTATION1
 62
     0
 10
-1.0
 20
0.267949
 30
0.0
 11
0.0
 21
0.0
 31
0.0
1001
ACAD
1000
RTLwPs
1070
   158
  0
LINE
  5
4B06
  8
COTATION1
 62
     0
 10
0.0
 20
0.0
 30
0.0
 11
-1.0
 21
-0.267949
 31
0.0
1001
ACAD
1000
RTLwPs
1070
   158
  0
LINE
  5
4B07
  8
COTATION1
 62
     0
 10
0.0
 20
0.0
 30
0.0
 11
-1.0
 21
0.0
 31
0.0
1001
ACAD
1000
RTLwPs
1070
   158
  0
ENDBLK
  5
4B09
  8
0
  0
BLOCK
  8
0
  2
*D3
 70
     1
 10
0.0
 20
0.0
 30
0.0
  3
*D3
  1

  0
LINE
  5
8B1E
  8
COTATION1
 62
     0
 10
161.460502
 20
119.926718
 30
0.0
 11
161.460502
 21
133.039091
 31
0.0
1001
ACAD
1000
RTLwPs
1070
   158
  0
LINE
  5
8B1F
  8
COTATION1
 62
     0
 10
177.460502
 20
119.926718
 30
0.0
 11
177.460502
 21
133.039091
 31
0.0
1001
ACAD
1000
RTLwPs
1070
   158
  0
LINE
  5
8B20
  8
COTATION1
 62
     0
 10
166.460502
 20
130.539091
 30
0.0
 11
172.460502
 21
130.539091
 31
0.0
1001
ACAD
1000
RTLwPs
1070
   158
  0
INSERT
  5
8B21
  8
COTATION1
 62
     0
  2
_OPEN30
 10
161.460502
 20
130.539091
 30
0.0
 41
5.0
 42
5.0
 43
5.0
 50
180.0
1001
ACAD
1000
RTLwPs
1070
   158
  0
INSERT
  5
8B22
  8
COTATION1
 62
     0
  2
_OPEN30
 10
177.460502
 20
130.539091
 30
0.0
 41
5.0
 42
5.0
 43
5.0
1001
ACAD
1000
RTLwPs
1070
   158
  0
TEXT
  5
8B23
  8
COTATION1
 62
     0
 10
166.900978
 20
132.539091
 30
0.0
 40
2.5
  1
16
1001
ACAD
1000
MTEXTBEGIN
1070
    73
1070
     1
1070
    44
1040
1.0
1070
    74
1070
     0
1000
MTEXTEND
  0
POINT
  5
8B24
  8
DEFPOINTS
 62
     0
 10
161.460502
 20
117.926718
 30
0.0
  0
POINT
  5
8B25
  8
DEFPOINTS
 62
     0
 10
177.460502
 20
117.926718
 30
0.0
  0
POINT
  5
8B26
  8
DEFPOINTS
 62
     0
 10
177.460502
 20
130.539091
 30
0.0
  0
ENDBLK
  5
7F3E
  8
0
  0
BLOCK
  8
0
  2
*D4
 70
     1
 10
0.0
 20
0.0
 30
0.0
  3
*D4
  1

  0
LINE
  5
8C9D
  8
COTATION1
 62
     0
 10
167.460502
 20
120.539091
 30
0.0
 11
141.977873
 21
120.539091
 31
0.0
1001
ACAD
1000
RTLwPs
1070
   158
  0
LINE
  5
8C9E
  8
COTATION1
 62
     0
 10
159.460519
 20
102.039091
 30
0.0
 11
141.977873
 21
102.039091
 31
0.0
1001
ACAD
1000
RTLwPs
1070
   158
  0
LINE
  5
8C9F
  8
COTATION1
 62
     0
 10
144.477873
 20
115.539091
 30
0.0
 11
144.477873
 21
114.212286
 31
0.0
1001
ACAD
1000
RTLwPs
1070
   158
  0
LINE
  5
8CA0
  8
COTATION1
 62
     0
 10
144.477873
 20
107.039091
 30
0.0
 11
144.477873
 21
107.712286
 31
0.0
1001
ACAD
1000
RTLwPs
1070
   158
  0
TEXT
  5
8CA1
  8
COTATION1
 62
     0
 10
140.132635
 20
109.712286
 30
0.0
 40
2.5
  1
18.5
1001
ACAD
1000
MTEXTBEGIN
1070
    73
1070
     1
1070
    44
1040
1.0
1070
    74
1070
     0
1000
MTEXTEND
  0
INSERT
  5
8CA2
  8
COTATION1
 62
     0
  2
_OPEN30
 10
144.477873
 20
120.539091
 30
0.0
 41
5.0
 42
5.0
 43
5.0
 50
90.0
1001
ACAD
1000
RTLwPs
1070
   158
  0
INSERT
  5
8CA3
  8
COTATION1
 62
     0
  2
_OPEN30
 10
144.477873
 20
102.039091
 30
0.0
 41
5.0
 42
5.0
 43
5.0
 50
270.0
1001
ACAD
1000
RTLwPs
1070
   158
  0
POINT
  5
8CA4
  8
DEFPOINTS
 62
     0
 10
169.460502
 20
120.539091
 30
0.0
  0
POINT
  5
8CA5
  8
DEFPOINTS
 62
     0
 10
161.460519
 20
102.039091
 30
0.0
  0
POINT
  5
8CA6
  8
DEFPOINTS
 62
     0
 10
144.477873
 20
102.039091
 30
0.0
  0
ENDBLK
  5
7F4B
  8
0
  0
BLOCK
  8
0
  2
*D5
 70
     1
 10
0.0
 20
0.0
 30
0.0
  3
*D5
  1

  0
LINE
  5
8D8B
  8
COTATION1
 62
     0
 10
171.460502
 20
120.539091
 30
0.0
 11
199.960502
 21
120.539091
 31
0.0
1001
ACAD
1000
RTLwPs
1070
   158
  0
LINE
  5
8D8C
  8
COTATION1
 62
     0
 10
177.460502
 20
90.139091
 30
0.0
 11
199.960502
 21
90.139091
 31
0.0
1001
ACAD
1000
RTLwPs
1070
   158
  0
LINE
  5
8D8D
  8
COTATION1
 62
     0
 10
197.460502
 20
115.539091
 30
0.0
 11
197.460502
 21
108.589091
 31
0.0
1001
ACAD
1000
RTLwPs
1070
   158
  0
LINE
  5
8D8E
  8
COTATION1
 62
     0
 10
197.460502
 20
95.139091
 30
0.0
 11
197.460502
 21
102.089091
 31
0.0
1001
ACAD
1000
RTLwPs
1070
   158
  0
INSERT
  5
8D8F
  8
COTATION1
 62
     0
  2
_OPEN30
 10
197.460502
 20
120.539091
 30
0.0
 41
5.0
 42
5.0
 43
5.0
 50
90.0
1001
ACAD
1000
RTLwPs
1070
   158
  0
INSERT
  5
8D90
  8
COTATION1
 62
     0
  2
_OPEN30
 10
197.460502
 20
90.139091
 30
0.0
 41
5.0
 42
5.0
 43
5.0
 50
270.0
1001
ACAD
1000
RTLwPs
1070
   158
  0
TEXT
  5
8D91
  8
COTATION1
 62
     0
 10
193.234312
 20
104.089091
 30
0.0
 40
2.5
  1
30.4
1001
ACAD
1000
MTEXTBEGIN
1070
    73
1070
     1
1070
    44
1040
1.0
1070
    74
1070
     0
1000
MTEXTEND
  0
POINT
  5
8D92
  8
DEFPOINTS
 62
     0
 10
169.460502
 20
120.539091
 30
0.0
  0
POINT
  5
8D93
  8
DEFPOINTS
 62
     0
 10
175.460502
 20
90.139091
 30
0.0
  0
POINT
  5
8D94
  8
DEFPOINTS
 62
     0
 10
197.460502
 20
90.139091
 30
0.0
  0
ENDBLK
  5
8D7E
  8
0
  0
ENDSEC
  0
SECTION
  2
ENTITIES
  0
INSERT
  5
A
  8
0
  2
COTE
 10
0.0
 20
0.0
 30
0.0
  0
INSERT
  5
17
  8
0
  2
COTE
 10
284.010391
 20
6.373258
 30
0.0
  0
INSERT
  5
72
  8
0
  2
FOND
 10
0.0
 20
0.0
 30
0.0
  0
DIMENSION
  5
7F30
  8
COTATION1
  2
*D3
 10
177.460502
 20
130.539091
 30
0.0
 11
169.460502
 21
133.789091
 31
0.0
 13
161.460502
 23
117.926718
 33
0.0
 14
177.460502
 24
117.926718
 34
0.0
  0
DIMENSION
  5
7F31
  8
COTATION1
  2
*D4
 10
144.477873
 20
102.039091
 30
0.0
 11
144.477873
 21
110.962286
 31
0.0
 70
   128
 13
169.460502
 23
120.539091
 33
0.0
 14
161.460519
 24
102.039091
 34
0.0
 50
90.0
  0
ARC
  5
85BC
  8
ALPHA
 10
175.460502
 20
117.926718
 30
0.0
 40
2.0
 50
0.0
 51
78.34488
  0
ARC
  5
85BD
  8
ALPHA
 10
163.460502
 20
117.926718
 30
0.0
 40
2.0
 50
101.65512
 51
180.0
  0
POLYLINE
  5
85BF
  8
ALPHA
 66
     1
 10
0.0
 20
0.0
 30
0.0
 70
   128
210
0.0
220
0.0
230
-1.0
  0
VERTEX
  5
8EBC
  8
ALPHA
 10
-168.706088
 20
109.704112
 30
0.0
  0
VERTEX
  5
8EBD
  8
ALPHA
 10
-168.352836
 20
109.942703
 30
0.0
  0
VERTEX
  5
8EBE
  8
ALPHA
 10
-168.06143
 20
110.254611
 30
0.0
  0
VERTEX
  5
8EBF
  8
ALPHA
 10
-167.84663
 20
110.622816
 30
0.0
  0
VERTEX
  5
8EC0
  8
ALPHA
 10
-167.72225
 20
111.030676
 30
0.0
  0
VERTEX
  5
8EC1
  8
ALPHA
 10
-167.69721
 20
111.456281
 30
0.0
  0
VERTEX
  5
8EC2
  8
ALPHA
 10
-167.775676
 20
111.87517
 30
0.0
  0
VERTEX
  5
8EC3
  8
ALPHA
 10
-167.95464
 20
112.26245
 30
0.0
  0
VERTEX
  5
8EC4
  8
ALPHA
 10
-168.22741
 20
112.589751
 30
0.0
  0
SEQEND
  5
8EC5
  8
ALPHA
  0
CIRCLE
  5
85C0
  8
ALPHA
 10
169.460502
 20
111.539091
 30
0.0
 40
7.899999
  0
CIRCLE
  5
85C1
  8
ALPHA
 10
169.460502
 20
111.539091
 30
0.0
 40
7.5
  0
ARC
  5
85C2
  8
ALPHA
 10
169.460502
 20
111.539091
 30
0.0
 40
9.0
 50
211.002719
 51
328.997281
  0
ARC
  5
85C3
  8
ALPHA
 10
169.460502
 20
111.539091
 30
0.0
 40
6.935285
 50
75.0
 51
105.0
  0
ARC
  5
85C4
  8
ALPHA
 10
169.460502
 20
111.539091
 30
0.0
 40
6.935285
 50
255.0
 51
285.0
  0
CIRCLE
  5
85C5
  8
ALPHA
 10
169.460502
 20
111.539091
 30
0.0
 40
6.85
  0
CIRCLE
  5
85C6
  8
ALPHA
 10
169.460502
 20
111.539091
 30
0.0
 40
6.050671
  0
CIRCLE
  5
85C7
  8
ALPHA
 10
169.460502
 20
111.539091
 30
0.0
 40
6.254728
  0
CIRCLE
  5
85C8
  8
ALPHA
 10
169.460502
 20
111.539091
 30
0.0
 40
6.547181
  0
CIRCLE
  5
85C9
  8
ALPHA
 10
169.460502
 20
111.539091
 30
0.0
 40
6.6
  0
ARC
  5
85CA
  8
ALPHA
 10
169.460502
 20
111.539091
 30
0.0
 40
3.999998
 50
254.000911
 51
255.999089
  0
ARC
  5
85CB
  8
ALPHA
 10
169.460502
 20
111.539091
 30
0.0
 40
3.999993
 50
104.000911
 51
105.999089
  0
ARC
  5
85CC
  8
ALPHA
 10
168.395978
 20
107.269807
 30
0.0
 40
0.2
 50
358.0
 51
75.999089
  0
ARC
  5
85CD
  8
ALPHA
 10
168.395978
 20
115.808376
 30
0.0
 40
0.2
 50
284.000911
 51
2.0
  0
CIRCLE
  5
85CE
  8
ALPHA
 10
169.460502
 20
111.539091
 30
0.0
 40
1.62
  0
CIRCLE
  5
85CF
  8
ALPHA
 10
169.460502
 20
111.539091
 30
0.0
 40
5.5
  0
CIRCLE
  5
85D0
  8
ALPHA
 10
169.460502
 20
111.539091
 30
0.0
 40
2.1
  0
ARC
  5
85D1
  8
ALPHA
 10
169.460502
 20
111.539091
 30
0.0
 40
2.0
 50
255.0
 51
195.0
  0
LINE
  5
85D8
  8
ALPHA
 10
168.444365
 20
115.614317
 30
0.0
 11
168.492753
 21
115.420259
 31
0.0
  0
LINE
  5
85D9
  8
ALPHA
 10
168.444365
 20
107.463865
 30
0.0
 11
168.492753
 21
107.657924
 31
0.0
  0
LINE
  5
85DA
  8
ALPHA
 10
177.460483
 20
102.039091
 30
0.0
 11
161.460519
 21
102.039091
 31
0.0
  0
LINE
  5
85DB
  8
ALPHA
 10
168.734789
 20
100.539091
 30
0.0
 11
168.255458
 21
100.539091
 31
0.0
  0
LINE
  5
85DC
  8
ALPHA
 10
169.263253
 20
100.239091
 30
0.0
 11
167.917695
 21
100.239091
 31
0.0
  0
LINE
  5
85DD
  8
ALPHA
 10
176.160385
 20
99.889091
 30
0.0
 11
162.760619
 21
99.889091
 31
0.0
  0
LINE
  5
85DE
  8
ALPHA
 10
175.810502
 20
98.589091
 30
0.0
 11
163.110502
 21
98.589091
 31
0.0
  0
LINE
  5
85DF
  8
ALPHA
 10
175.810502
 20
97.439091
 30
0.0
 11
163.110502
 21
97.439091
 31
0.0
  0
LINE
  5
85E0
  8
ALPHA
 10
163.460502
 20
97.239091
 30
0.0
 11
175.460502
 21
97.239091
 31
0.0
  0
LINE
  5
85E1
  8
ALPHA
 10
175.810502
 20
96.239091
 30
0.0
 11
163.110502
 21
96.239091
 31
0.0
  0
LINE
  5
85E2
  8
ALPHA
 10
175.810502
 20
95.589091
 30
0.0
 11
163.110502
 21
95.589091
 31
0.0
  0
LINE
  5
85E3
  8
ALPHA
 10
172.408184
 20
95.389091
 30
0.0
 11
166.512811
 21
95.389091
 31
0.0
  0
LINE
  5
85E4
  8
ALPHA
 10
163.435502
 20
94.964091
 30
0.0
 11
174.78555
 21
94.964091
 31
0.0
  0
LINE
  5
85E5
  8
ALPHA
 10
163.110502
 20
94.939091
 30
0.0
 11
175.810502
 21
94.939091
 31
0.0
  0
LINE
  5
85E6
  8
ALPHA
 10
163.110502
 20
91.839091
 30
0.0
 11
175.810502
 21
91.839091
 31
0.0
  0
LINE
  5
85E7
  8
ALPHA
 10
163.160529
 20
91.639091
 30
0.0
 11
175.760502
 21
91.639091
 31
0.0
  0
LINE
  5
85E8
  8
ALPHA
 10
163.160502
 20
90.439091
 30
0.0
 11
175.760502
 21
90.439091
 31
0.0
  0
LINE
  5
85E9
  8
ALPHA
 10
175.460502
 20
90.139091
 30
0.0
 11
163.460502
 21
90.139091
 31
0.0
  0
ARC
  5
8635
  8
ALPHA
 10
163.460502
 20
96.739091
 30
0.0
 40
0.5
 50
90.0
 51
270.0
  0
LINE
  5
8636
  8
ALPHA
 10
163.435502
 20
95.414091
 30
0.0
 11
166.229403
 21
95.414091
 31
0.0
  0
POLYLINE
  5
8637
  8
ALPHA
 66
     1
 10
0.0
 20
0.0
 30
0.0
  0
VERTEX
  5
8EC6
  8
ALPHA
 10
164.26435
 20
95.589091
 30
0.0
  0
VERTEX
  5
8EC7
  8
ALPHA
 10
164.363774
 20
95.566255
 30
0.0
  0
VERTEX
  5
8EC8
  8
ALPHA
 10
164.448062
 20
95.501223
 30
0.0
  0
VERTEX
  5
8EC9
  8
ALPHA
 10
164.498481
 20
95.414091
 30
0.0
  0
SEQEND
  5
8ECA
  8
ALPHA
  0
LINE
  5
8638
  8
ALPHA
 10
163.160502
 20
91.639091
 30
0.0
 11
163.160502
 21
90.439091
 31
0.0
  0
ARC
  5
8639
  8
ALPHA
 10
163.460502
 20
90.439091
 30
0.0
 40
0.3
 50
180.0
 51
270.0
  0
ARC
  5
863A
  8
ALPHA
 10
163.460502
 20
95.239091
 30
0.0
 40
0.3
 50
270.0
 51
292.358016
  0
ARC
  5
863B
  8
ALPHA
 10
163.460502
 20
95.289091
 30
0.0
 40
0.3
 50
24.950915
 51
90.0
  0
ARC
  5
863C
  8
ALPHA
 10
163.435502
 20
95.189091
 30
0.0
 40
0.225
 50
90.0
 51
270.0
  0
LINE
  5
863D
  8
ALPHA
 10
163.848002
 20
91.839091
 30
0.0
 11
163.760502
 21
91.639091
 31
0.0
  0
POLYLINE
  5
863E
  8
ALPHA
 66
     1
 10
0.0
 20
0.0
 30
0.0
  0
VERTEX
  5
8ECB
  8
ALPHA
 10
164.146195
 20
95.189091
 30
0.0
  0
VERTEX
  5
8ECC
  8
ALPHA
 10
164.155558
 20
95.119562
 30
0.0
  0
VERTEX
  5
8ECD
  8
ALPHA
 10
164.182733
 20
95.05684
 30
0.0
  0
VERTEX
  5
8ECE
  8
ALPHA
 10
164.225058
 20
95.007062
 30
0.0
  0
VERTEX
  5
8ECF
  8
ALPHA
 10
164.27839
 20
94.975104
 30
0.0
  0
VERTEX
  5
8ED0
  8
ALPHA
 10
164.33751
 20
94.964091
 30
0.0
  0
SEQEND
  5
8ED1
  8
ALPHA
  0
LINE
  5
863F
  8
ALPHA
 10
163.110502
 20
95.589091
 30
0.0
 11
163.110502
 21
96.239091
 31
0.0
  0
LINE
  5
8640
  8
ALPHA
 10
163.110502
 20
91.839091
 30
0.0
 11
163.110502
 21
94.939091
 31
0.0
  0
POLYLINE
  5
8641
  8
ALPHA
 66
     1
 10
0.0
 20
0.0
 30
0.0
  0
VERTEX
  5
8ED2
  8
ALPHA
 10
164.33751
 20
95.414091
 30
0.0
  0
VERTEX
  5
8ED3
  8
ALPHA
 10
164.27839
 20
95.403079
 30
0.0
  0
VERTEX
  5
8ED4
  8
ALPHA
 10
164.225058
 20
95.37112
 30
0.0
  0
VERTEX
  5
8ED5
  8
ALPHA
 10
164.182733
 20
95.321343
 30
0.0
  0
VERTEX
  5
8ED6
  8
ALPHA
 10
164.155558
 20
95.25862
 30
0.0
  0
VERTEX
  5
8ED7
  8
ALPHA
 10
164.146195
 20
95.189091
 30
0.0
  0
SEQEND
  5
8ED8
  8
ALPHA
  0
LINE
  5
8642
  8
ALPHA
 10
164.26435
 20
94.939091
 30
0.0
 11
164.363774
 21
94.961927
 31
0.0
  0
POLYLINE
  5
8643
  8
ALPHA
 66
     1
 10
0.0
 20
0.0
 30
0.0
 70
   128
210
0.0
220
0.0
230
-1.0
  0
VERTEX
  5
8ED9
  8
ALPHA
 10
-166.435635
 20
95.289091
 30
0.0
  0
VERTEX
  5
8EDA
  8
ALPHA
 10
-166.701483
 20
95.51772
 30
0.0
  0
VERTEX
  5
8EDB
  8
ALPHA
 10
-167.048553
 20
95.589091
 30
0.0
  0
SEQEND
  5
8EDC
  8
ALPHA
  0
LINE
  5
8644
  8
ALPHA
 10
166.256208
 20
94.939091
 30
0.0
 11
166.256208
 21
94.964091
 31
0.0
  0
LINE
  5
8645
  8
ALPHA
 10
166.229403
 20
95.414091
 30
0.0
 11
166.229403
 21
94.964091
 31
0.0
  0
LINE
  5
8646
  8
ALPHA
 10
166.656772
 20
94.939091
 30
0.0
 11
166.502693
 21
94.963258
 31
0.0
  0
ARC
  5
8647
  8
ALPHA
 10
169.460502
 20
111.539091
 30
0.0
 40
6.935285
 50
195.0
 51
225.0
  0
ARC
  5
8648
  8
ALPHA
 10
167.194395
 20
107.767519
 30
0.0
 40
0.399993
 50
59.000911
 51
137.0
  0
ARC
  5
8649
  8
ALPHA
 10
169.460502
 20
111.539091
 30
0.0
 40
3.999999
 50
239.000911
 51
240.999089
  0
ARC
  5
864A
  8
ALPHA
 10
167.327279
 20
107.690799
 30
0.0
 40
0.399993
 50
343.0
 51
60.999089
  0
LINE
  5
864B
  8
ALPHA
 10
166.494923
 20
107.764792
 30
0.0
 11
166.743174
 21
108.162077
 31
0.0
  0
LINE
  5
864C
  8
ALPHA
 10
166.325313
 20
107.870775
 30
0.0
 11
166.573564
 21
108.268061
 31
0.0
  0
LINE
  5
864D
  8
ALPHA
 10
167.297399
 20
107.938954
 30
0.0
 11
167.400404
 21
108.110389
 31
0.0
  0
LINE
  5
864E
  8
ALPHA
 10
161.460502
 20
102.039091
 30
0.0
 11
161.460502
 21
117.926718
 31
0.0
  0
ARC
  5
864F
  8
ALPHA
 10
169.460502
 20
111.539091
 30
0.0
 40
7.15
 50
225.0
 51
255.0
  0
ARC
  5
8650
  8
ALPHA
 10
169.460502
 20
111.539091
 30
0.0
 40
7.4
 50
225.0
 51
255.0
  0
LINE
  5
8651
  8
ALPHA
 10
164.173862
 20
106.252451
 30
0.0
 11
164.616821
 21
106.69541
 31
0.0
  0
LINE
  5
8652
  8
ALPHA
 10
163.960502
 20
98.589091
 30
0.0
 11
163.960502
 21
99.889091
 31
0.0
  0
LINE
  5
8653
  8
ALPHA
 10
163.860502
 20
97.239091
 30
0.0
 11
163.860502
 21
97.439091
 31
0.0
  0
LINE
  5
8654
  8
ALPHA
 10
163.110502
 20
97.439091
 30
0.0
 11
163.110502
 21
98.589091
 31
0.0
  0
LINE
  5
8655
  8
ALPHA
 10
162.760502
 20
102.039091
 30
0.0
 11
162.760502
 21
99.889091
 31
0.0
  0
ARC
  5
8656
  8
ALPHA
 10
163.460502
 20
107.93354
 30
0.0
 40
2.0
 50
180.0
 51
211.002719
  0
LINE
  5
8657
  8
ALPHA
 10
166.842505
 20
100.539091
 30
0.0
 11
166.417521
 21
100.539091
 31
0.0
  0
LINE
  5
8658
  8
ALPHA
 10
167.536507
 20
100.239091
 30
0.0
 11
166.282897
 21
100.239091
 31
0.0
  0
LINE
  5
8659
  8
ALPHA
 10
166.402783
 20
100.239091
 30
0.0
 11
166.417521
 21
100.539091
 31
0.0
  0
LINE
  5
865A
  8
ALPHA
 10
166.417521
 20
100.539091
 30
0.0
 11
166.417521
 21
102.039091
 31
0.0
  0
LINE
  5
865B
  8
ALPHA
 10
166.387853
 20
100.239091
 30
0.0
 11
166.387853
 21
102.039091
 31
0.0
  0
LINE
  5
865C
  8
ALPHA
 10
166.282897
 20
100.239091
 30
0.0
 11
166.282897
 21
102.039091
 31
0.0
  0
POLYLINE
  5
865D
  8
ALPHA
 66
     1
 10
0.0
 20
0.0
 30
0.0
 70
   128
  0
VERTEX
  5
8EDD
  8
ALPHA
 10
166.842505
 20
100.539091
 30
0.0
  0
VERTEX
  5
8EDE
  8
ALPHA
 10
166.907349
 20
100.337059
 30
0.0
  0
VERTEX
  5
8EDF
  8
ALPHA
 10
167.091612
 20
100.239091
 30
0.0
  0
SEQEND
  5
8EE0
  8
ALPHA
  0
POLYLINE
  5
865E
  8
ALPHA
 66
     1
 10
0.0
 20
0.0
 30
0.0
 70
   128
  0
VERTEX
  5
8EE1
  8
ALPHA
 10
168.165442
 20
100.239091
 30
0.0
  0
VERTEX
  5
8EE2
  8
ALPHA
 10
168.245222
 20
100.374158
 30
0.0
  0
VERTEX
  5
8EE3
  8
ALPHA
 10
168.255458
 20
100.539091
 30
0.0
  0
SEQEND
  5
8EE4
  8
ALPHA
  0
LINE
  5
865F
  8
ALPHA
 10
168.062543
 20
100.239091
 30
0.0
 11
167.991186
 21
102.039091
 31
0.0
  0
LINE
  5
8660
  8
ALPHA
 10
167.917695
 20
100.239091
 30
0.0
 11
167.848404
 21
102.039091
 31
0.0
  0
LINE
  5
8661
  8
ALPHA
 10
167.536507
 20
102.039091
 30
0.0
 11
167.536507
 21
100.239091
 31
0.0
  0
LINE
  5
8662
  8
ALPHA
 10
167.343956
 20
102.039091
 30
0.0
 11
167.343956
 21
100.239091
 31
0.0
  0
LINE
  5
8663
  8
ALPHA
 10
168.255458
 20
100.539091
 30
0.0
 11
168.197441
 21
102.039091
 31
0.0
  0
LINE
  5
8664
  8
ALPHA
 10
166.842505
 20
100.539091
 30
0.0
 11
166.842505
 21
102.039091
 31
0.0
  0
ARC
  5
8665
  8
ALPHA
 10
169.460502
 20
111.539091
 30
0.0
 40
5.0
 50
231.842227
 51
233.157773
  0
LINE
  5
8666
  8
ALPHA
 10
166.325313
 20
107.870775
 30
0.0
 11
166.494923
 21
107.764792
 31
0.0
  0
LINE
  5
8667
  8
ALPHA
 10
166.494923
 20
107.764792
 30
0.0
 11
166.371357
 21
107.607529
 31
0.0
  0
ARC
  5
8668
  8
ALPHA
 10
166.494923
 20
107.764792
 30
0.0
 40
0.2
 50
148.0
 51
231.842227
  0
ARC
  5
8669
  8
ALPHA
 10
168.247765
 20
107.309521
 30
0.0
 40
0.399993
 50
74.000911
 51
152.0
  0
ARC
  5
866A
  8
ALPHA
 10
169.460502
 20
111.539091
 30
0.0
 40
4.8
 50
231.842227
 51
233.157773
  0
ARC
  5
866B
  8
ALPHA
 10
169.460502
 20
111.539091
 30
0.0
 40
4.8
 50
246.842227
 51
248.157773
  0
ARC
  5
866C
  8
ALPHA
 10
166.582357
 20
107.697701
 30
0.0
 40
0.2
 50
233.157773
 51
317.0
  0
ARC
  5
866D
  8
ALPHA
 10
169.460502
 20
111.539091
 30
0.0
 40
4.2
 50
254.000911
 51
255.999089
  0
ARC
  5
866E
  8
ALPHA
 10
167.194395
 20
107.767519
 30
0.0
 40
0.2
 50
59.000911
 51
137.0
  0
ARC
  5
866F
  8
ALPHA
 10
169.460502
 20
111.539091
 30
0.0
 40
4.2
 50
239.000911
 51
240.999089
  0
ARC
  5
8670
  8
ALPHA
 10
168.247765
 20
107.309521
 30
0.0
 40
0.2
 50
74.000911
 51
152.0
  0
ARC
  5
8671
  8
ALPHA
 10
167.327279
 20
107.690799
 30
0.0
 40
0.2
 50
343.0
 51
60.999089
  0
ARC
  5
8672
  8
ALPHA
 10
167.572833
 20
107.125849
 30
0.0
 40
0.2
 50
163.0
 51
246.842227
  0
ARC
  5
8673
  8
ALPHA
 10
167.674652
 20
107.083674
 30
0.0
 40
0.2
 50
248.157773
 51
332.0
  0
ARC
  5
8674
  8
ALPHA
 10
169.460502
 20
111.539091
 30
0.0
 40
5.0
 50
246.842227
 51
248.157773
  0
LINE
  5
8675
  8
ALPHA
 10
167.297399
 20
107.938954
 30
0.0
 11
167.424243
 21
107.865721
 31
0.0
  0
LINE
  5
8676
  8
ALPHA
 10
168.071175
 20
107.403415
 30
0.0
 11
167.894586
 21
107.497309
 31
0.0
  0
LINE
  5
8677
  8
ALPHA
 10
167.851242
 20
106.98978
 30
0.0
 11
167.674652
 21
107.083674
 31
0.0
  0
LINE
  5
8678
  8
ALPHA
 10
167.518539
 20
107.632324
 30
0.0
 11
167.7098
 21
107.57385
 31
0.0
  0
LINE
  5
8679
  8
ALPHA
 10
167.381572
 20
107.184324
 30
0.0
 11
167.572833
 21
107.125849
 31
0.0
  0
LINE
  5
867A
  8
ALPHA
 10
167.048124
 20
107.903919
 30
0.0
 11
166.901853
 21
108.040318
 31
0.0
  0
LINE
  5
867B
  8
ALPHA
 10
166.728628
 20
107.561301
 30
0.0
 11
166.582357
 21
107.697701
 31
0.0
  0
LINE
  5
867C
  8
ALPHA
 10
168.302889
 20
107.501774
 30
0.0
 11
168.358014
 21
107.694027
 31
0.0
  0
LINE
  5
867D
  8
ALPHA
 10
167.521543
 20
104.302796
 30
0.0
 11
167.687592
 21
104.922499
 31
0.0
  0
LINE
  5
867E
  8
ALPHA
 10
167.424243
 20
107.865721
 30
0.0
 11
167.521208
 21
108.040643
 31
0.0
  0
LINE
  5
867F
  8
ALPHA
 10
168.071175
 20
107.403415
 30
0.0
 11
167.851242
 21
106.98978
 31
0.0
  0
LINE
  5
8680
  8
ALPHA
 10
167.894586
 20
107.497309
 30
0.0
 11
167.674652
 21
107.083674
 31
0.0
  0
LINE
  5
8681
  8
ALPHA
 10
167.572833
 20
107.125849
 30
0.0
 11
167.49418
 21
106.941964
 31
0.0
  0
LINE
  5
8682
  8
ALPHA
 10
167.600242
 20
106.898032
 30
0.0
 11
167.674652
 21
107.083674
 31
0.0
  0
LINE
  5
8683
  8
ALPHA
 10
167.572833
 20
107.125849
 30
0.0
 11
167.7098
 21
107.57385
 31
0.0
  0
LINE
  5
8684
  8
ALPHA
 10
167.381572
 20
107.184324
 30
0.0
 11
167.518539
 21
107.632324
 31
0.0
  0
LINE
  5
8685
  8
ALPHA
 10
167.048124
 20
107.903919
 30
0.0
 11
166.728628
 21
107.561301
 31
0.0
  0
LINE
  5
8686
  8
ALPHA
 10
166.901853
 20
108.040318
 30
0.0
 11
166.582357
 21
107.697701
 31
0.0
  0
LINE
  5
8687
  8
ALPHA
 10
166.462434
 20
107.537643
 30
0.0
 11
166.582357
 21
107.697701
 31
0.0
  0
ARC
  5
8688
  8
ALPHA
 10
169.460502
 20
111.539091
 30
0.0
 40
6.935285
 50
135.0
 51
165.0
  0
ARC
  5
8689
  8
ALPHA
 10
169.460502
 20
111.539091
 30
0.0
 40
7.15
 50
105.0
 51
135.0
  0
ARC
  5
868A
  8
ALPHA
 10
169.460502
 20
111.539091
 30
0.0
 40
7.4
 50
105.0
 51
135.0
  0
LINE
  5
868B
  8
ALPHA
 10
164.173605
 20
116.825989
 30
0.0
 11
164.616821
 21
116.382773
 31
0.0
  0
ARC
  5
868C
  8
ALPHA
 10
169.460502
 20
111.539091
 30
0.0
 40
7.15
 50
165.0
 51
195.0
  0
LINE
  5
868D
  8
ALPHA
 10
162.226765
 20
113.477365
 30
0.0
 11
162.84391
 21
113.312002
 31
0.0
  0
LINE
  5
868E
  8
ALPHA
 10
162.2285
 20
109.601282
 30
0.0
 11
162.84391
 21
109.766181
 31
0.0
  0
ARC
  5
868F
  8
ALPHA
 10
169.460502
 20
111.539091
 30
0.0
 40
7.4
 50
165.0
 51
195.0
  0
ARC
  5
8690
  8
ALPHA
 10
165.68893
 20
113.805199
 30
0.0
 40
0.399993
 50
329.000911
 51
47.0
  0
ARC
  5
8691
  8
ALPHA
 10
165.68893
 20
113.805199
 30
0.0
 40
0.2
 50
329.000911
 51
47.0
  0
ARC
  5
8692
  8
ALPHA
 10
166.295456
 20
108.482544
 30
0.0
 40
0.399993
 50
44.000911
 51
122.0
  0
ARC
  5
8693
  8
ALPHA
 10
166.295456
 20
108.482544
 30
0.0
 40
0.2
 50
44.000911
 51
122.0
  0
ARC
  5
8694
  8
ALPHA
 10
169.460502
 20
111.539091
 30
0.0
 40
4.2
 50
224.000911
 51
225.999089
  0
LINE
  5
8695
  8
ALPHA
 10
166.439321
 20
108.621478
 30
0.0
 11
166.542889
 21
108.517911
 31
0.0
  0
LINE
  5
8696
  8
ALPHA
 10
166.439321
 20
108.621478
 30
0.0
 11
166.583187
 21
108.760412
 31
0.0
  0
ARC
  5
8697
  8
ALPHA
 10
165.612209
 20
109.405868
 30
0.0
 40
0.399993
 50
29.000911
 51
107.0
  0
ARC
  5
8698
  8
ALPHA
 10
169.460502
 20
111.539091
 30
0.0
 40
4.0
 50
209.000911
 51
210.999089
  0
ARC
  5
8699
  8
ALPHA
 10
165.68893
 20
109.272984
 30
0.0
 40
0.399993
 50
313.0
 51
30.999089
  0
ARC
  5
869A
  8
ALPHA
 10
169.460502
 20
111.539091
 30
0.0
 40
3.999998
 50
149.000911
 51
150.999089
  0
ARC
  5
869B
  8
ALPHA
 10
165.612209
 20
113.672315
 30
0.0
 40
0.399993
 50
253.0
 51
330.999089
  0
ARC
  5
869C
  8
ALPHA
 10
165.230931
 20
112.751828
 30
0.0
 40
0.399993
 50
344.000911
 51
62.0
  0
ARC
  5
869D
  8
ALPHA
 10
169.460502
 20
111.539091
 30
0.0
 40
3.99999
 50
164.000911
 51
165.999089
  0
ARC
  5
869E
  8
ALPHA
 10
165.191218
 20
112.603616
 30
0.0
 40
0.399993
 50
268.0
 51
345.999089
  0
ARC
  5
869F
  8
ALPHA
 10
165.061171
 20
111.615812
 30
0.0
 40
0.399993
 50
359.000911
 51
77.0
  0
ARC
  5
86A0
  8
ALPHA
 10
169.460502
 20
111.539091
 30
0.0
 40
4.0
 50
179.000911
 51
180.999089
  0
ARC
  5
86A1
  8
ALPHA
 10
165.061171
 20
111.462371
 30
0.0
 40
0.399993
 50
283.0
 51
0.999089
  0
ARC
  5
86A2
  8
ALPHA
 10
165.191218
 20
110.474567
 30
0.0
 40
0.399993
 50
14.000911
 51
92.0
  0
ARC
  5
86A3
  8
ALPHA
 10
169.460502
 20
111.539091
 30
0.0
 40
3.999989
 50
194.000911
 51
195.999089
  0
ARC
  5
86A4
  8
ALPHA
 10
165.230931
 20
110.326354
 30
0.0
 40
0.399993
 50
298.0
 51
15.999089
  0
ARC
  5
86A5
  8
ALPHA
 10
169.460502
 20
111.539091
 30
0.0
 40
4.8
 50
156.842227
 51
158.157773
  0
ARC
  5
86A6
  8
ALPHA
 10
169.460502
 20
111.539091
 30
0.0
 40
4.8
 50
171.842227
 51
173.157773
  0
ARC
  5
86A7
  8
ALPHA
 10
169.460502
 20
111.539091
 30
0.0
 40
4.8
 50
186.842227
 51
188.157773
  0
ARC
  5
86A8
  8
ALPHA
 10
169.460502
 20
111.539091
 30
0.0
 40
4.8
 50
201.842227
 51
203.157773
  0
ARC
  5
86A9
  8
ALPHA
 10
169.460502
 20
111.539091
 30
0.0
 40
4.8
 50
216.842227
 51
218.157773
  0
ARC
  5
86AA
  8
ALPHA
 10
165.686202
 20
108.573512
 30
0.0
 40
0.2
 50
218.157773
 51
302.0
  0
ARC
  5
86AB
  8
ALPHA
 10
165.04726
 20
109.651422
 30
0.0
 40
0.2
 50
203.157773
 51
287.0
  0
ARC
  5
86AC
  8
ALPHA
 10
165.612209
 20
109.405868
 30
0.0
 40
0.2
 50
29.000911
 51
107.0
  0
ARC
  5
86AD
  8
ALPHA
 10
169.460502
 20
111.539091
 30
0.0
 40
4.2
 50
209.000911
 51
210.999089
  0
ARC
  5
86AE
  8
ALPHA
 10
165.68893
 20
109.272984
 30
0.0
 40
0.2
 50
313.0
 51
30.999089
  0
ARC
  5
86AF
  8
ALPHA
 10
165.619112
 20
108.660946
 30
0.0
 40
0.2
 50
133.0
 51
216.842227
  0
ARC
  5
86B0
  8
ALPHA
 10
169.460502
 20
111.539091
 30
0.0
 40
4.2
 50
149.000911
 51
150.999089
  0
ARC
  5
86B1
  8
ALPHA
 10
165.612209
 20
113.672315
 30
0.0
 40
0.2
 50
253.0
 51
330.999089
  0
ARC
  5
86B2
  8
ALPHA
 10
165.04726
 20
113.42676
 30
0.0
 40
0.2
 50
73.0
 51
156.842227
  0
ARC
  5
86B3
  8
ALPHA
 10
165.005085
 20
113.324941
 30
0.0
 40
0.2
 50
158.157773
 51
242.0
  0
ARC
  5
86B4
  8
ALPHA
 10
165.230931
 20
112.751828
 30
0.0
 40
0.2
 50
344.000911
 51
62.0
  0
ARC
  5
86B5
  8
ALPHA
 10
169.460502
 20
111.539091
 30
0.0
 40
4.2
 50
164.000911
 51
165.999089
  0
ARC
  5
86B6
  8
ALPHA
 10
165.191218
 20
112.603616
 30
0.0
 40
0.2
 50
268.0
 51
345.999089
  0
ARC
  5
86B7
  8
ALPHA
 10
164.709073
 20
112.220209
 30
0.0
 40
0.2
 50
88.0
 51
171.842227
  0
ARC
  5
86B8
  8
ALPHA
 10
164.694688
 20
112.110943
 30
0.0
 40
0.2
 50
173.157773
 51
257.0
  0
ARC
  5
86B9
  8
ALPHA
 10
165.061171
 20
111.615812
 30
0.0
 40
0.2
 50
359.000911
 51
77.0
  0
ARC
  5
86BA
  8
ALPHA
 10
169.460502
 20
111.539091
 30
0.0
 40
4.2
 50
179.000911
 51
180.999089
  0
ARC
  5
86BB
  8
ALPHA
 10
165.061171
 20
111.462371
 30
0.0
 40
0.2
 50
283.0
 51
0.999089
  0
ARC
  5
86BC
  8
ALPHA
 10
164.694688
 20
110.96724
 30
0.0
 40
0.2
 50
103.0
 51
186.842227
  0
ARC
  5
86BD
  8
ALPHA
 10
164.709073
 20
110.857974
 30
0.0
 40
0.2
 50
188.157773
 51
272.0
  0
ARC
  5
86BE
  8
ALPHA
 10
165.191218
 20
110.474567
 30
0.0
 40
0.2
 50
14.000911
 51
92.0
  0
ARC
  5
86BF
  8
ALPHA
 10
169.460502
 20
111.539091
 30
0.0
 40
4.2
 50
194.000911
 51
195.999089
  0
ARC
  5
86C0
  8
ALPHA
 10
165.230931
 20
110.326354
 30
0.0
 40
0.2
 50
298.0
 51
15.999089
  0
ARC
  5
86C1
  8
ALPHA
 10
165.005085
 20
109.753242
 30
0.0
 40
0.2
 50
118.0
 51
201.842227
  0
ARC
  5
86C2
  8
ALPHA
 10
169.460502
 20
111.539091
 30
0.0
 40
5.0
 50
156.842227
 51
158.157773
  0
ARC
  5
86C3
  8
ALPHA
 10
169.460502
 20
111.539091
 30
0.0
 40
5.0
 50
171.842227
 51
173.157773
  0
ARC
  5
86C4
  8
ALPHA
 10
169.460502
 20
111.539091
 30
0.0
 40
5.0
 50
186.842227
 51
188.157773
  0
ARC
  5
86C5
  8
ALPHA
 10
169.460502
 20
111.539091
 30
0.0
 40
5.0
 50
201.842227
 51
203.157773
  0
ARC
  5
86C6
  8
ALPHA
 10
169.460502
 20
111.539091
 30
0.0
 40
5.0
 50
216.842227
 51
218.157773
  0
LINE
  5
86C7
  8
ALPHA
 10
165.105734
 20
113.618021
 30
0.0
 11
165.553735
 21
113.481054
 31
0.0
  0
LINE
  5
86C8
  8
ALPHA
 10
164.716053
 20
112.420087
 30
0.0
 11
165.184238
 21
112.403737
 31
0.0
  0
LINE
  5
86C9
  8
ALPHA
 10
164.709073
 20
112.220209
 30
0.0
 11
165.177258
 21
112.203859
 31
0.0
  0
LINE
  5
86CA
  8
ALPHA
 10
164.649698
 20
111.162114
 30
0.0
 11
165.106161
 21
111.267497
 31
0.0
  0
LINE
  5
86CB
  8
ALPHA
 10
165.04726
 20
113.42676
 30
0.0
 11
164.863375
 21
113.505413
 31
0.0
  0
LINE
  5
86CC
  8
ALPHA
 10
164.819443
 20
113.399351
 30
0.0
 11
165.005085
 21
113.324941
 31
0.0
  0
LINE
  5
86CD
  8
ALPHA
 10
165.04726
 20
113.42676
 30
0.0
 11
165.495261
 21
113.289793
 31
0.0
  0
LINE
  5
86CE
  8
ALPHA
 10
165.423185
 20
112.696704
 30
0.0
 11
165.615438
 21
112.64158
 31
0.0
  0
LINE
  5
86CF
  8
ALPHA
 10
165.385276
 20
112.555228
 30
0.0
 11
165.579335
 21
112.506841
 31
0.0
  0
LINE
  5
86D0
  8
ALPHA
 10
165.151151
 20
112.00556
 30
0.0
 11
164.694688
 21
112.110943
 31
0.0
  0
LINE
  5
86D1
  8
ALPHA
 10
164.709073
 20
112.220209
 30
0.0
 11
164.511097
 21
112.248589
 31
0.0
  0
LINE
  5
86D2
  8
ALPHA
 10
164.496112
 20
112.13477
 30
0.0
 11
164.694688
 21
112.110943
 31
0.0
  0
LINE
  5
86D3
  8
ALPHA
 10
165.261141
 20
111.612325
 30
0.0
 11
165.46111
 21
111.608837
 31
0.0
  0
LINE
  5
86D4
  8
ALPHA
 10
165.261141
 20
111.465858
 30
0.0
 11
165.46111
 21
111.469345
 31
0.0
  0
LINE
  5
86D5
  8
ALPHA
 10
165.177258
 20
110.874323
 30
0.0
 11
164.709073
 21
110.857974
 31
0.0
  0
LINE
  5
86D6
  8
ALPHA
 10
165.184238
 20
110.674445
 30
0.0
 11
164.716053
 21
110.658096
 31
0.0
  0
LINE
  5
86D7
  8
ALPHA
 10
164.694688
 20
110.96724
 30
0.0
 11
164.496112
 21
110.943413
 31
0.0
  0
LINE
  5
86D8
  8
ALPHA
 10
164.511097
 20
110.829594
 30
0.0
 11
164.709073
 21
110.857974
 31
0.0
  0
LINE
  5
86D9
  8
ALPHA
 10
164.694688
 20
110.96724
 30
0.0
 11
165.151151
 21
111.072623
 31
0.0
  0
LINE
  5
86DA
  8
ALPHA
 10
165.385276
 20
110.522955
 30
0.0
 11
165.579335
 21
110.571342
 31
0.0
  0
LINE
  5
86DB
  8
ALPHA
 10
165.860365
 20
113.702194
 30
0.0
 11
166.0318
 21
113.599189
 31
0.0
  0
LINE
  5
86DC
  8
ALPHA
 10
165.787132
 20
113.57535
 30
0.0
 11
165.962054
 21
113.478385
 31
0.0
  0
LINE
  5
86DD
  8
ALPHA
 10
165.41872
 20
113.105007
 30
0.0
 11
165.005085
 21
113.324941
 31
0.0
  0
LINE
  5
86DE
  8
ALPHA
 10
165.324826
 20
112.928418
 30
0.0
 11
164.911191
 21
113.148351
 31
0.0
  0
LINE
  5
86DF
  8
ALPHA
 10
165.106161
 20
111.810686
 30
0.0
 11
164.649698
 21
111.916069
 31
0.0
  0
LINE
  5
86E0
  8
ALPHA
 10
165.82533
 20
109.126713
 30
0.0
 11
165.961729
 21
108.980442
 31
0.0
  0
LINE
  5
86E1
  8
ALPHA
 10
165.787132
 20
109.502832
 30
0.0
 11
165.860365
 21
109.375989
 31
0.0
  0
LINE
  5
86E2
  8
ALPHA
 10
166.189472
 20
108.652154
 30
0.0
 11
166.083488
 21
108.821763
 31
0.0
  0
LINE
  5
86E3
  8
ALPHA
 10
165.482712
 20
108.807217
 30
0.0
 11
165.619112
 21
108.660946
 31
0.0
  0
LINE
  5
86E4
  8
ALPHA
 10
165.324826
 20
110.149765
 30
0.0
 11
165.41872
 21
109.973175
 31
0.0
  0
LINE
  5
86E5
  8
ALPHA
 10
164.911191
 20
109.929831
 30
0.0
 11
165.005085
 21
109.753242
 31
0.0
  0
LINE
  5
86E6
  8
ALPHA
 10
165.792186
 20
108.403902
 30
0.0
 11
165.686202
 21
108.573512
 31
0.0
  0
LINE
  5
86E7
  8
ALPHA
 10
165.106161
 20
111.267497
 30
0.0
 11
165.151151
 21
111.072623
 31
0.0
  0
LINE
  5
86E8
  8
ALPHA
 10
164.649698
 20
111.162114
 30
0.0
 11
164.694688
 21
110.96724
 31
0.0
  0
LINE
  5
86E9
  8
ALPHA
 10
165.385276
 20
110.522955
 30
0.0
 11
165.423185
 21
110.381479
 31
0.0
  0
LINE
  5
86EA
  8
ALPHA
 10
165.553735
 20
109.597129
 30
0.0
 11
165.495261
 21
109.78839
 31
0.0
  0
LINE
  5
86EB
  8
ALPHA
 10
165.105734
 20
109.460161
 30
0.0
 11
165.04726
 21
109.651422
 31
0.0
  0
LINE
  5
86EC
  8
ALPHA
 10
165.184238
 20
112.403737
 30
0.0
 11
165.177258
 21
112.203859
 31
0.0
  0
LINE
  5
86ED
  8
ALPHA
 10
165.261141
 20
111.612325
 30
0.0
 11
165.261141
 21
111.465858
 31
0.0
  0
LINE
  5
86EE
  8
ALPHA
 10
165.184238
 20
110.674445
 30
0.0
 11
165.177258
 21
110.874323
 31
0.0
  0
LINE
  5
86EF
  8
ALPHA
 10
164.716053
 20
110.658096
 30
0.0
 11
164.709073
 21
110.857974
 31
0.0
  0
LINE
  5
86F0
  8
ALPHA
 10
166.189472
 20
108.652154
 30
0.0
 11
165.792186
 21
108.403902
 31
0.0
  0
LINE
  5
86F1
  8
ALPHA
 10
166.083488
 20
108.821763
 30
0.0
 11
165.686202
 21
108.573512
 31
0.0
  0
LINE
  5
86F2
  8
ALPHA
 10
165.619112
 20
108.660946
 30
0.0
 11
165.459054
 21
108.541023
 31
0.0
  0
LINE
  5
86F3
  8
ALPHA
 10
165.52894
 20
108.449946
 30
0.0
 11
165.686202
 21
108.573512
 31
0.0
  0
LINE
  5
86F4
  8
ALPHA
 10
165.619112
 20
108.660946
 30
0.0
 11
165.961729
 21
108.980442
 31
0.0
  0
LINE
  5
86F5
  8
ALPHA
 10
165.482712
 20
108.807217
 30
0.0
 11
165.82533
 21
109.126713
 31
0.0
  0
LINE
  5
86F6
  8
ALPHA
 10
164.716053
 20
112.420087
 30
0.0
 11
164.709073
 21
112.220209
 31
0.0
  0
LINE
  5
86F7
  8
ALPHA
 10
165.423185
 20
110.381479
 30
0.0
 11
165.615438
 21
110.436603
 31
0.0
  0
LINE
  5
86F8
  8
ALPHA
 10
165.553735
 20
109.597129
 30
0.0
 11
165.105734
 21
109.460161
 31
0.0
  0
LINE
  5
86F9
  8
ALPHA
 10
165.495261
 20
109.78839
 30
0.0
 11
165.04726
 21
109.651422
 31
0.0
  0
LINE
  5
86FA
  8
ALPHA
 10
165.005085
 20
109.753242
 30
0.0
 11
164.819443
 21
109.678831
 31
0.0
  0
LINE
  5
86FB
  8
ALPHA
 10
164.863375
 20
109.572769
 30
0.0
 11
165.04726
 21
109.651422
 31
0.0
  0
LINE
  5
86FC
  8
ALPHA
 10
165.005085
 20
109.753242
 30
0.0
 11
165.41872
 21
109.973175
 31
0.0
  0
LINE
  5
86FD
  8
ALPHA
 10
164.911191
 20
109.929831
 30
0.0
 11
165.324826
 21
110.149765
 31
0.0
  0
LINE
  5
86FE
  8
ALPHA
 10
165.787132
 20
109.502832
 30
0.0
 11
165.962054
 21
109.599797
 31
0.0
  0
LINE
  5
86FF
  8
ALPHA
 10
165.860365
 20
109.375989
 30
0.0
 11
166.0318
 21
109.478994
 31
0.0
  0
LINE
  5
8700
  8
ALPHA
 10
165.553735
 20
113.481054
 30
0.0
 11
165.495261
 21
113.289793
 31
0.0
  0
LINE
  5
8701
  8
ALPHA
 10
165.105734
 20
113.618021
 30
0.0
 11
165.04726
 21
113.42676
 31
0.0
  0
LINE
  5
8702
  8
ALPHA
 10
165.423185
 20
112.696704
 30
0.0
 11
165.385276
 21
112.555228
 31
0.0
  0
LINE
  5
8703
  8
ALPHA
 10
165.106161
 20
111.810686
 30
0.0
 11
165.151151
 21
112.00556
 31
0.0
  0
LINE
  5
8704
  8
ALPHA
 10
164.649698
 20
111.916069
 30
0.0
 11
164.694688
 21
112.110943
 31
0.0
  0
LINE
  5
8705
  8
ALPHA
 10
165.860365
 20
113.702194
 30
0.0
 11
165.787132
 21
113.57535
 31
0.0
  0
LINE
  5
8706
  8
ALPHA
 10
165.324826
 20
112.928418
 30
0.0
 11
165.41872
 21
113.105007
 31
0.0
  0
LINE
  5
8707
  8
ALPHA
 10
164.911191
 20
113.148351
 30
0.0
 11
165.005085
 21
113.324941
 31
0.0
  0
ARC
  5
8708
  8
ALPHA
 10
169.460502
 20
111.539091
 30
0.0
 40
3.999989
 50
224.000911
 51
225.999089
  0
ARC
  5
8709
  8
ALPHA
 10
166.403955
 20
108.374045
 30
0.0
 40
0.399993
 50
328.0
 51
45.999089
  0
ARC
  5
870A
  8
ALPHA
 10
166.403955
 20
108.374045
 30
0.0
 40
0.2
 50
328.0
 51
45.999089
  0
LINE
  5
870B
  8
ALPHA
 10
166.573564
 20
108.268061
 30
0.0
 11
166.743174
 21
108.162077
 31
0.0
  0
LINE
  5
870C
  8
ALPHA
 10
166.542889
 20
108.517911
 30
0.0
 11
166.681823
 21
108.661776
 31
0.0
  0
ARC
  5
870D
  8
ALPHA
 10
166.295456
 20
114.595638
 30
0.0
 40
0.399993
 50
238.0
 51
315.999089
  0
ARC
  5
870E
  8
ALPHA
 10
169.460502
 20
111.539091
 30
0.0
 40
4.2
 50
134.000911
 51
135.999089
  0
ARC
  5
870F
  8
ALPHA
 10
166.295456
 20
114.595638
 30
0.0
 40
0.2
 50
238.0
 51
315.999089
  0
ARC
  5
8710
  8
ALPHA
 10
169.460502
 20
111.539091
 30
0.0
 40
5.0
 50
126.842227
 51
128.157773
  0
LINE
  5
8711
  8
ALPHA
 10
166.439321
 20
114.456705
 30
0.0
 11
166.583187
 21
114.317771
 31
0.0
  0
LINE
  5
8712
  8
ALPHA
 10
166.371357
 20
115.470654
 30
0.0
 11
166.494923
 21
115.313391
 31
0.0
  0
LINE
  5
8713
  8
ALPHA
 10
166.573564
 20
114.810122
 30
0.0
 11
166.325313
 21
115.207407
 31
0.0
  0
LINE
  5
8714
  8
ALPHA
 10
166.542889
 20
114.560272
 30
0.0
 11
166.439321
 21
114.456705
 31
0.0
  0
LINE
  5
8715
  8
ALPHA
 10
166.325313
 20
115.207407
 30
0.0
 11
166.494923
 21
115.313391
 31
0.0
  0
ARC
  5
8716
  8
ALPHA
 10
169.460502
 20
111.539091
 30
0.0
 40
4.8
 50
141.842227
 51
143.157773
  0
ARC
  5
8717
  8
ALPHA
 10
166.494923
 20
115.313391
 30
0.0
 40
0.2
 50
128.157773
 51
212.0
  0
ARC
  5
8718
  8
ALPHA
 10
165.686202
 20
114.504671
 30
0.0
 40
0.2
 50
58.0
 51
141.842227
  0
ARC
  5
8719
  8
ALPHA
 10
165.619112
 20
114.417236
 30
0.0
 40
0.2
 50
143.157773
 51
227.0
  0
ARC
  5
871A
  8
ALPHA
 10
169.460502
 20
111.539091
 30
0.0
 40
5.0
 50
141.842227
 51
143.157773
  0
LINE
  5
871B
  8
ALPHA
 10
165.792186
 20
114.67428
 30
0.0
 11
166.189472
 21
114.426029
 31
0.0
  0
LINE
  5
871C
  8
ALPHA
 10
165.686202
 20
114.504671
 30
0.0
 11
166.083488
 21
114.256419
 31
0.0
  0
LINE
  5
871D
  8
ALPHA
 10
165.686202
 20
114.504671
 30
0.0
 11
165.52894
 21
114.628237
 31
0.0
  0
LINE
  5
871E
  8
ALPHA
 10
165.459054
 20
114.537159
 30
0.0
 11
165.619112
 21
114.417236
 31
0.0
  0
LINE
  5
871F
  8
ALPHA
 10
165.961729
 20
114.09774
 30
0.0
 11
165.619112
 21
114.417236
 31
0.0
  0
LINE
  5
8720
  8
ALPHA
 10
165.82533
 20
113.95147
 30
0.0
 11
165.482712
 21
114.270966
 31
0.0
  0
LINE
  5
8721
  8
ALPHA
 10
166.189472
 20
114.426029
 30
0.0
 11
166.083488
 21
114.256419
 31
0.0
  0
LINE
  5
8722
  8
ALPHA
 10
165.82533
 20
113.95147
 30
0.0
 11
165.961729
 21
114.09774
 31
0.0
  0
LINE
  5
8723
  8
ALPHA
 10
165.792186
 20
114.67428
 30
0.0
 11
165.686202
 21
114.504671
 31
0.0
  0
LINE
  5
8724
  8
ALPHA
 10
165.482712
 20
114.270966
 30
0.0
 11
165.619112
 21
114.417236
 31
0.0
  0
ARC
  5
8725
  8
ALPHA
 10
168.247765
 20
115.768662
 30
0.0
 40
0.399993
 50
208.0
 51
285.999089
  0
ARC
  5
8726
  8
ALPHA
 10
167.327279
 20
115.387384
 30
0.0
 40
0.399993
 50
299.000911
 51
17.0
  0
ARC
  5
8727
  8
ALPHA
 10
169.460502
 20
111.539091
 30
0.0
 40
3.999996
 50
119.000911
 51
120.999089
  0
ARC
  5
8728
  8
ALPHA
 10
167.194395
 20
115.310663
 30
0.0
 40
0.399993
 50
223.0
 51
300.999089
  0
ARC
  5
8729
  8
ALPHA
 10
166.403955
 20
114.704138
 30
0.0
 40
0.399993
 50
314.000911
 51
32.0
  0
ARC
  5
872A
  8
ALPHA
 10
169.460502
 20
111.539091
 30
0.0
 40
3.999991
 50
134.000911
 51
135.999089
  0
ARC
  5
872B
  8
ALPHA
 10
169.460502
 20
111.539091
 30
0.0
 40
4.8
 50
111.842227
 51
113.157773
  0
ARC
  5
872C
  8
ALPHA
 10
169.460502
 20
111.539091
 30
0.0
 40
4.8
 50
126.842227
 51
128.157773
  0
ARC
  5
872D
  8
ALPHA
 10
167.572833
 20
115.952333
 30
0.0
 40
0.2
 50
113.157773
 51
197.0
  0
ARC
  5
872E
  8
ALPHA
 10
167.327279
 20
115.387384
 30
0.0
 40
0.2
 50
299.000911
 51
17.0
  0
ARC
  5
872F
  8
ALPHA
 10
169.460502
 20
111.539091
 30
0.0
 40
4.2
 50
119.000911
 51
120.999089
  0
ARC
  5
8730
  8
ALPHA
 10
167.194395
 20
115.310663
 30
0.0
 40
0.2
 50
223.0
 51
300.999089
  0
ARC
  5
8731
  8
ALPHA
 10
166.582357
 20
115.380482
 30
0.0
 40
0.2
 50
43.0
 51
126.842227
  0
ARC
  5
8732
  8
ALPHA
 10
166.403955
 20
114.704138
 30
0.0
 40
0.2
 50
314.000911
 51
32.0
  0
ARC
  5
8733
  8
ALPHA
 10
169.460502
 20
111.539091
 30
0.0
 40
5.0
 50
111.842227
 51
113.157773
  0
ARC
  5
8734
  8
ALPHA
 10
167.674652
 20
115.994508
 30
0.0
 40
0.2
 50
28.0
 51
111.842227
  0
ARC
  5
8735
  8
ALPHA
 10
168.247765
 20
115.768662
 30
0.0
 40
0.2
 50
208.0
 51
285.999089
  0
ARC
  5
8736
  8
ALPHA
 10
169.460502
 20
111.539091
 30
0.0
 40
4.2
 50
104.000911
 51
105.999089
  0
LINE
  5
8737
  8
ALPHA
 10
168.444365
 20
115.614317
 30
0.0
 11
168.302889
 21
115.576409
 31
0.0
  0
LINE
  5
8738
  8
ALPHA
 10
166.728628
 20
115.516881
 30
0.0
 11
167.048124
 21
115.174264
 31
0.0
  0
LINE
  5
8739
  8
ALPHA
 10
166.582357
 20
115.380482
 30
0.0
 11
166.901853
 21
115.037864
 31
0.0
  0
LINE
  5
873A
  8
ALPHA
 10
167.851242
 20
116.088403
 30
0.0
 11
168.071175
 21
115.674768
 31
0.0
  0
LINE
  5
873B
  8
ALPHA
 10
167.674652
 20
115.994508
 30
0.0
 11
167.894586
 21
115.580873
 31
0.0
  0
LINE
  5
873C
  8
ALPHA
 10
166.582357
 20
115.380482
 30
0.0
 11
166.462434
 21
115.54054
 31
0.0
  0
LINE
  5
873D
  8
ALPHA
 10
166.542889
 20
114.560272
 30
0.0
 11
166.681823
 21
114.416406
 31
0.0
  0
LINE
  5
873E
  8
ALPHA
 10
167.674652
 20
115.994508
 30
0.0
 11
167.600242
 21
116.180151
 31
0.0
  0
LINE
  5
873F
  8
ALPHA
 10
167.49418
 20
116.136218
 30
0.0
 11
167.572833
 21
115.952333
 31
0.0
  0
LINE
  5
8740
  8
ALPHA
 10
167.424243
 20
115.212462
 30
0.0
 11
167.521208
 21
115.037539
 31
0.0
  0
LINE
  5
8741
  8
ALPHA
 10
167.297399
 20
115.139228
 30
0.0
 11
167.400404
 21
114.967793
 31
0.0
  0
LINE
  5
8742
  8
ALPHA
 10
166.743174
 20
114.916106
 30
0.0
 11
166.494923
 21
115.313391
 31
0.0
  0
LINE
  5
8743
  8
ALPHA
 10
167.521408
 20
118.775889
 30
0.0
 11
167.687592
 21
118.155683
 31
0.0
  0
LINE
  5
8744
  8
ALPHA
 10
168.302889
 20
115.576409
 30
0.0
 11
168.358014
 21
115.384156
 31
0.0
  0
LINE
  5
8745
  8
ALPHA
 10
167.7098
 20
115.504333
 30
0.0
 11
167.572833
 21
115.952333
 31
0.0
  0
LINE
  5
8746
  8
ALPHA
 10
167.518539
 20
115.445858
 30
0.0
 11
167.381572
 21
115.893859
 31
0.0
  0
LINE
  5
8747
  8
ALPHA
 10
167.048124
 20
115.174264
 30
0.0
 11
166.901853
 21
115.037864
 31
0.0
  0
LINE
  5
8748
  8
ALPHA
 10
168.071175
 20
115.674768
 30
0.0
 11
167.894586
 21
115.580873
 31
0.0
  0
LINE
  5
8749
  8
ALPHA
 10
166.573564
 20
114.810122
 30
0.0
 11
166.743174
 21
114.916106
 31
0.0
  0
LINE
  5
874A
  8
ALPHA
 10
166.728628
 20
115.516881
 30
0.0
 11
166.582357
 21
115.380482
 31
0.0
  0
LINE
  5
874B
  8
ALPHA
 10
167.518539
 20
115.445858
 30
0.0
 11
167.7098
 21
115.504333
 31
0.0
  0
LINE
  5
874C
  8
ALPHA
 10
167.381572
 20
115.893859
 30
0.0
 11
167.572833
 21
115.952333
 31
0.0
  0
LINE
  5
874D
  8
ALPHA
 10
167.851242
 20
116.088403
 30
0.0
 11
167.674652
 21
115.994508
 31
0.0
  0
ARC
  5
87B5
  8
ALPHA
 10
175.460502
 20
96.739091
 30
0.0
 40
0.5
 50
270.0
 51
90.0
  0
POLYLINE
  5
87B6
  8
ALPHA
 66
     1
 10
0.0
 20
0.0
 30
0.0
 70
   128
210
0.0
220
0.0
230
-1.0
  0
VERTEX
  5
8EE5
  8
ALPHA
 10
-171.872451
 20
95.589091
 30
0.0
  0
VERTEX
  5
8EE6
  8
ALPHA
 10
-172.219522
 20
95.517719
 30
0.0
  0
VERTEX
  5
8EE7
  8
ALPHA
 10
-172.485369
 20
95.289091
 30
0.0
  0
SEQEND
  5
8EE8
  8
ALPHA
  0
LINE
  5
87B7
  8
ALPHA
 10
172.418296
 20
94.963252
 30
0.0
 11
172.264232
 21
94.939091
 31
0.0
  0
LINE
  5
87B8
  8
ALPHA
 10
175.760502
 20
91.639091
 30
0.0
 11
175.760502
 21
90.439091
 31
0.0
  0
ARC
  5
87B9
  8
ALPHA
 10
175.460502
 20
90.439091
 30
0.0
 40
0.3
 50
270.0
 51
0.0
  0
POLYLINE
  5
87BA
  8
ALPHA
 66
     1
 10
0.0
 20
0.0
 30
0.0
  0
VERTEX
  5
8EE9
  8
ALPHA
 10
174.656654
 20
94.939091
 30
0.0
  0
VERTEX
  5
8EEA
  8
ALPHA
 10
174.55723
 20
94.961928
 30
0.0
  0
VERTEX
  5
8EEB
  8
ALPHA
 10
174.554426
 20
94.964091
 30
0.0
  0
SEQEND
  5
8EEC
  8
ALPHA
  0
LINE
  5
87BB
  8
ALPHA
 10
172.691601
 20
95.414091
 30
0.0
 11
174.78555
 21
95.414091
 31
0.0
  0
POLYLINE
  5
87BC
  8
ALPHA
 66
     1
 10
0.0
 20
0.0
 30
0.0
  0
VERTEX
  5
8EED
  8
ALPHA
 10
174.656654
 20
95.589091
 30
0.0
  0
VERTEX
  5
8EEE
  8
ALPHA
 10
174.55723
 20
95.566255
 30
0.0
  0
VERTEX
  5
8EEF
  8
ALPHA
 10
174.472943
 20
95.501223
 30
0.0
  0
VERTEX
  5
8EF0
  8
ALPHA
 10
174.422523
 20
95.414091
 30
0.0
  0
SEQEND
  5
8EF1
  8
ALPHA
  0
LINE
  5
87BD
  8
ALPHA
 10
172.691601
 20
95.414091
 30
0.0
 11
172.691601
 21
94.964091
 31
0.0
  0
LINE
  5
87BE
  8
ALPHA
 10
172.664796
 20
94.939091
 30
0.0
 11
172.664796
 21
94.964091
 31
0.0
  0
LINE
  5
87BF
  8
ALPHA
 10
172.664796
 20
95.589091
 30
0.0
 11
172.664796
 21
95.289091
 31
0.0
  0
LINE
  5
87C0
  8
ALPHA
 10
174.673113
 20
94.958616
 30
0.0
 11
174.66213
 21
94.962486
 31
0.0
  0
LINE
  5
87C1
  8
ALPHA
 10
174.702051
 20
94.950211
 30
0.0
 11
174.673113
 21
94.958616
 31
0.0
  0
LINE
  5
87C2
  8
ALPHA
 10
174.781735
 20
94.939266
 30
0.0
 11
174.702051
 21
94.950211
 31
0.0
  0
LINE
  5
87C3
  8
ALPHA
 10
174.793184
 20
94.939091
 30
0.0
 11
174.781735
 21
94.939266
 31
0.0
  0
POLYLINE
  5
87C4
  8
ALPHA
 66
     1
 10
0.0
 20
0.0
 30
0.0
 70
   128
210
0.0
220
0.0
230
-1.0
  0
VERTEX
  5
8EF2
  8
ALPHA
 10
-174.78555
 20
95.414091
 30
0.0
  0
VERTEX
  5
8EF3
  8
ALPHA
 10
-174.944678
 20
95.368982
 30
0.0
  0
VERTEX
  5
8EF4
  8
ALPHA
 10
-175.063336
 20
95.252711
 30
0.0
  0
VERTEX
  5
8EF5
  8
ALPHA
 10
-175.171079
 20
94.939205
 30
0.0
  0
SEQEND
  5
8EF6
  8
ALPHA
  0
LINE
  5
87C5
  8
ALPHA
 10
174.707699
 20
94.960125
 30
0.0
 11
174.709484
 21
94.952659
 31
0.0
  0
LINE
  5
87C6
  8
ALPHA
 10
174.706809
 20
94.964227
 30
0.0
 11
174.707699
 21
94.960125
 31
0.0
  0
ARC
  5
87C7
  8
ALPHA
 10
175.460502
 20
95.239091
 30
0.0
 40
0.3
 50
180.0
 51
252.0
  0
ARC
  5
87C8
  8
ALPHA
 10
175.460502
 20
95.289091
 30
0.0
 40
0.3
 50
90.0
 51
180.0
  0
POLYLINE
  5
87C9
  8
ALPHA
 66
     1
 10
0.0
 20
0.0
 30
0.0
  0
VERTEX
  5
8EF7
  8
ALPHA
 10
174.989113
 20
95.189091
 30
0.0
  0
VERTEX
  5
8EF8
  8
ALPHA
 10
174.97915
 20
95.119562
 30
0.0
  0
VERTEX
  5
8EF9
  8
ALPHA
 10
174.950236
 20
95.05684
 30
0.0
  0
VERTEX
  5
8EFA
  8
ALPHA
 10
174.905201
 20
95.007062
 30
0.0
  0
VERTEX
  5
8EFB
  8
ALPHA
 10
174.848454
 20
94.975104
 30
0.0
  0
VERTEX
  5
8EFC
  8
ALPHA
 10
174.78555
 20
94.964091
 30
0.0
  0
SEQEND
  5
8EFD
  8
ALPHA
  0
LINE
  5
87CA
  8
ALPHA
 10
175.810502
 20
95.589091
 30
0.0
 11
175.810502
 21
96.239091
 31
0.0
  0
LINE
  5
87CB
  8
ALPHA
 10
175.810502
 20
91.839091
 30
0.0
 11
175.810502
 21
94.939091
 31
0.0
  0
LINE
  5
87CC
  8
ALPHA
 10
175.453206
 20
91.839091
 30
0.0
 11
175.453206
 21
94.939091
 31
0.0
  0
LINE
  5
87CD
  8
ALPHA
 10
175.184137
 20
91.839091
 30
0.0
 11
175.184137
 21
94.939091
 31
0.0
  0
LINE
  5
87CE
  8
ALPHA
 10
175.160502
 20
95.239091
 30
0.0
 11
175.160502
 21
95.289091
 31
0.0
  0
POLYLINE
  5
87CF
  8
ALPHA
 66
     1
 10
0.0
 20
0.0
 30
0.0
  0
VERTEX
  5
8EFE
  8
ALPHA
 10
174.908173
 20
95.189091
 30
0.0
  0
VERTEX
  5
8EFF
  8
ALPHA
 10
174.90122
 20
95.247395
 30
0.0
  0
VERTEX
  5
8F00
  8
ALPHA
 10
174.880864
 20
95.301662
 30
0.0
  0
VERTEX
  5
8F01
  8
ALPHA
 10
174.848498
 20
95.348249
 30
0.0
  0
VERTEX
  5
8F02
  8
ALPHA
 10
174.80634
 20
95.38398
 30
0.0
  0
VERTEX
  5
8F03
  8
ALPHA
 10
174.757265
 20
95.406434
 30
0.0
  0
SEQEND
  5
8F04
  8
ALPHA
  0
LINE
  5
87D0
  8
ALPHA
 10
175.073002
 20
91.839091
 30
0.0
 11
175.160502
 21
91.639091
 31
0.0
  0
POLYLINE
  5
87D1
  8
ALPHA
 66
     1
 10
0.0
 20
0.0
 30
0.0
  0
VERTEX
  5
8F05
  8
ALPHA
 10
174.78555
 20
95.414091
 30
0.0
  0
VERTEX
  5
8F06
  8
ALPHA
 10
174.848454
 20
95.403079
 30
0.0
  0
VERTEX
  5
8F07
  8
ALPHA
 10
174.905201
 20
95.37112
 30
0.0
  0
VERTEX
  5
8F08
  8
ALPHA
 10
174.950236
 20
95.321343
 30
0.0
  0
VERTEX
  5
8F09
  8
ALPHA
 10
174.97915
 20
95.25862
 30
0.0
  0
VERTEX
  5
8F0A
  8
ALPHA
 10
174.989113
 20
95.189091
 30
0.0
  0
SEQEND
  5
8F0B
  8
ALPHA
  0
LINE
  5
87D2
  8
ALPHA
 10
174.757265
 20
95.406434
 30
0.0
 11
174.70461
 21
95.414091
 31
0.0
  0
LINE
  5
87D3
  8
ALPHA
 10
175.160502
 20
95.289091
 30
0.0
 11
175.035895
 21
95.289091
 31
0.0
  0
LINE
  5
87D4
  8
ALPHA
 10
175.067882
 20
95.239091
 30
0.0
 11
175.160502
 21
95.239091
 31
0.0
  0
POLYLINE
  5
87D5
  8
ALPHA
 66
     1
 10
0.0
 20
0.0
 30
0.0
  0
VERTEX
  5
8F0C
  8
ALPHA
 10
174.70461
 20
94.964091
 30
0.0
  0
VERTEX
  5
8F0D
  8
ALPHA
 10
174.757265
 20
94.971749
 30
0.0
  0
VERTEX
  5
8F0E
  8
ALPHA
 10
174.80634
 20
94.994203
 30
0.0
  0
VERTEX
  5
8F0F
  8
ALPHA
 10
174.848498
 20
95.029934
 30
0.0
  0
VERTEX
  5
8F10
  8
ALPHA
 10
174.880864
 20
95.076521
 30
0.0
  0
VERTEX
  5
8F11
  8
ALPHA
 10
174.90122
 20
95.130787
 30
0.0
  0
VERTEX
  5
8F12
  8
ALPHA
 10
174.908173
 20
95.189091
 30
0.0
  0
SEQEND
  5
8F13
  8
ALPHA
  0
ARC
  5
87D6
  8
ALPHA
 10
169.460502
 20
111.539091
 30
0.0
 40
7.4
 50
345.0
 51
15.0
  0
ARC
  5
87D7
  8
ALPHA
 10
169.460502
 20
111.539091
 30
0.0
 40
6.935285
 50
315.0
 51
345.0
  0
ARC
  5
87D8
  8
ALPHA
 10
171.72661
 20
107.767519
 30
0.0
 40
0.399993
 50
43.0
 51
120.999089
  0
ARC
  5
87D9
  8
ALPHA
 10
169.460502
 20
111.539091
 30
0.0
 40
3.999998
 50
299.000911
 51
300.999089
  0
ARC
  5
87DA
  8
ALPHA
 10
171.593726
 20
107.690799
 30
0.0
 40
0.399993
 50
119.000911
 51
197.0
  0
LINE
  5
87DB
  8
ALPHA
 10
172.34744
 20
108.268061
 30
0.0
 11
172.595691
 21
107.870775
 31
0.0
  0
LINE
  5
87DC
  8
ALPHA
 10
172.17783
 20
108.162077
 30
0.0
 11
172.426082
 21
107.764792
 31
0.0
  0
LINE
  5
87DD
  8
ALPHA
 10
171.623605
 20
107.938954
 30
0.0
 11
171.5206
 21
108.110389
 31
0.0
  0
ARC
  5
87DE
  8
ALPHA
 10
169.460502
 20
111.539091
 30
0.0
 40
7.15
 50
285.0
 51
315.0
  0
ARC
  5
87DF
  8
ALPHA
 10
169.460502
 20
111.539091
 30
0.0
 40
7.4
 50
285.0
 51
315.0
  0
ARC
  5
87E0
  8
ALPHA
 10
172.426082
 20
107.764792
 30
0.0
 40
0.2
 50
308.157773
 51
32.0
  0
LINE
  5
87E1
  8
ALPHA
 10
172.595691
 20
107.870775
 30
0.0
 11
172.426082
 21
107.764792
 31
0.0
  0
LINE
  5
87E2
  8
ALPHA
 10
172.638107
 20
100.239091
 30
0.0
 11
171.384497
 21
100.239091
 31
0.0
  0
LINE
  5
87E3
  8
ALPHA
 10
170.653962
 20
100.539091
 30
0.0
 11
170.197897
 21
100.539091
 31
0.0
  0
LINE
  5
87E4
  8
ALPHA
 10
171.003177
 20
100.239091
 30
0.0
 11
169.657888
 21
100.239091
 31
0.0
  0
POLYLINE
  5
87E5
  8
ALPHA
 66
     1
 10
0.0
 20
0.0
 30
0.0
 70
   128
  0
VERTEX
  5
8F14
  8
ALPHA
 10
168.734789
 20
100.539091
 30
0.0
  0
VERTEX
  5
8F15
  8
ALPHA
 10
168.766192
 20
100.3539
 30
0.0
  0
VERTEX
  5
8F16
  8
ALPHA
 10
168.904647
 20
100.239091
 30
0.0
  0
SEQEND
  5
8F17
  8
ALPHA
  0
POLYLINE
  5
87E6
  8
ALPHA
 66
     1
 10
0.0
 20
0.0
 30
0.0
 70
   128
  0
VERTEX
  5
8F18
  8
ALPHA
 10
170.016357
 20
100.239091
 30
0.0
  0
VERTEX
  5
8F19
  8
ALPHA
 10
170.158926
 20
100.353151
 30
0.0
  0
VERTEX
  5
8F1A
  8
ALPHA
 10
170.197897
 20
100.539091
 30
0.0
  0
SEQEND
  5
8F1B
  8
ALPHA
  0
LINE
  5
87E7
  8
ALPHA
 10
169.161906
 20
102.039091
 30
0.0
 11
169.088507
 21
100.239091
 31
0.0
  0
LINE
  5
87E8
  8
ALPHA
 10
169.334527
 20
102.039091
 30
0.0
 11
169.263253
 21
100.239091
 31
0.0
  0
LINE
  5
87E9
  8
ALPHA
 10
170.197897
 20
100.539091
 30
0.0
 11
170.197897
 21
102.039091
 31
0.0
  0
LINE
  5
87EA
  8
ALPHA
 10
169.832459
 20
102.039091
 30
0.0
 11
169.832459
 21
100.239091
 31
0.0
  0
LINE
  5
87EB
  8
ALPHA
 10
169.657888
 20
100.239091
 30
0.0
 11
169.657888
 21
102.039091
 31
0.0
  0
LINE
  5
87EC
  8
ALPHA
 10
168.734789
 20
100.539091
 30
0.0
 11
168.793369
 21
102.039091
 31
0.0
  0
POLYLINE
  5
87ED
  8
ALPHA
 66
     1
 10
0.0
 20
0.0
 30
0.0
 70
   128
  0
VERTEX
  5
8F1C
  8
ALPHA
 10
170.653962
 20
100.539091
 30
0.0
  0
VERTEX
  5
8F1D
  8
ALPHA
 10
170.670756
 20
100.373307
 30
0.0
  0
VERTEX
  5
8F1E
  8
ALPHA
 10
170.755562
 20
100.239091
 30
0.0
  0
SEQEND
  5
8F1F
  8
ALPHA
  0
LINE
  5
87EE
  8
ALPHA
 10
172.503484
 20
100.539091
 30
0.0
 11
172.518221
 21
100.239091
 31
0.0
  0
POLYLINE
  5
87EF
  8
ALPHA
 66
     1
 10
0.0
 20
0.0
 30
0.0
 70
   128
  0
VERTEX
  5
8F20
  8
ALPHA
 10
171.829392
 20
100.239091
 30
0.0
  0
VERTEX
  5
8F21
  8
ALPHA
 10
172.013655
 20
100.337059
 30
0.0
  0
VERTEX
  5
8F22
  8
ALPHA
 10
172.078499
 20
100.539091
 30
0.0
  0
SEQEND
  5
8F23
  8
ALPHA
  0
LINE
  5
87F0
  8
ALPHA
 10
172.533151
 20
102.039091
 30
0.0
 11
172.533151
 21
100.239091
 31
0.0
  0
LINE
  5
87F1
  8
ALPHA
 10
172.503484
 20
100.539091
 30
0.0
 11
172.503484
 21
102.039091
 31
0.0
  0
LINE
  5
87F2
  8
ALPHA
 10
172.078499
 20
100.539091
 30
0.0
 11
172.078499
 21
102.039091
 31
0.0
  0
LINE
  5
87F3
  8
ALPHA
 10
171.577048
 20
100.239091
 30
0.0
 11
171.577048
 21
102.039091
 31
0.0
  0
LINE
  5
87F4
  8
ALPHA
 10
171.384497
 20
100.239091
 30
0.0
 11
171.384497
 21
102.039091
 31
0.0
  0
LINE
  5
87F5
  8
ALPHA
 10
171.003177
 20
102.039091
 30
0.0
 11
171.003177
 21
100.239091
 31
0.0
  0
LINE
  5
87F6
  8
ALPHA
 10
170.858483
 20
102.039091
 30
0.0
 11
170.858483
 21
100.239091
 31
0.0
  0
LINE
  5
87F7
  8
ALPHA
 10
170.653962
 20
100.539091
 30
0.0
 11
170.653962
 21
102.039091
 31
0.0
  0
LINE
  5
87F8
  8
ALPHA
 10
172.503484
 20
100.539091
 30
0.0
 11
172.078499
 21
100.539091
 31
0.0
  0
ARC
  5
87F9
  8
ALPHA
 10
169.460502
 20
111.539091
 30
0.0
 40
3.99999
 50
284.000911
 51
285.999089
  0
ARC
  5
87FA
  8
ALPHA
 10
169.460502
 20
111.539091
 30
0.0
 40
4.2
 50
284.000911
 51
285.999089
  0
LINE
  5
87FB
  8
ALPHA
 10
170.476639
 20
107.463865
 30
0.0
 11
170.618115
 21
107.501774
 31
0.0
  0
ARC
  5
87FC
  8
ALPHA
 10
168.395978
 20
107.269807
 30
0.0
 40
0.399993
 50
358.0
 51
75.999089
  0
ARC
  5
87FD
  8
ALPHA
 10
169.537223
 20
107.13976
 30
0.0
 40
0.399993
 50
13.0
 51
90.999089
  0
ARC
  5
87FE
  8
ALPHA
 10
169.460502
 20
111.539091
 30
0.0
 40
3.999991
 50
269.000911
 51
270.999089
  0
ARC
  5
87FF
  8
ALPHA
 10
169.383781
 20
107.13976
 30
0.0
 40
0.399993
 50
89.000911
 51
167.0
  0
ARC
  5
8800
  8
ALPHA
 10
170.525026
 20
107.269807
 30
0.0
 40
0.399993
 50
104.000911
 51
182.0
  0
ARC
  5
8801
  8
ALPHA
 10
169.460502
 20
111.539091
 30
0.0
 40
4.8
 50
261.842227
 51
263.157773
  0
ARC
  5
8802
  8
ALPHA
 10
169.460502
 20
111.539091
 30
0.0
 40
4.8
 50
276.842227
 51
278.157773
  0
ARC
  5
8803
  8
ALPHA
 10
168.779385
 20
106.787662
 30
0.0
 40
0.2
 50
178.0
 51
261.842227
  0
ARC
  5
8804
  8
ALPHA
 10
170.032354
 20
106.773277
 30
0.0
 40
0.2
 50
193.0
 51
276.842227
  0
ARC
  5
8805
  8
ALPHA
 10
169.537223
 20
107.13976
 30
0.0
 40
0.2
 50
13.0
 51
90.999089
  0
ARC
  5
8806
  8
ALPHA
 10
169.460502
 20
111.539091
 30
0.0
 40
4.2
 50
269.000911
 51
270.999089
  0
ARC
  5
8807
  8
ALPHA
 10
169.383781
 20
107.13976
 30
0.0
 40
0.2
 50
89.000911
 51
167.0
  0
ARC
  5
8808
  8
ALPHA
 10
168.88865
 20
106.773277
 30
0.0
 40
0.2
 50
263.157773
 51
347.0
  0
ARC
  5
8809
  8
ALPHA
 10
170.525026
 20
107.269807
 30
0.0
 40
0.2
 50
104.000911
 51
182.0
  0
ARC
  5
880A
  8
ALPHA
 10
170.141619
 20
106.787662
 30
0.0
 40
0.2
 50
278.157773
 51
2.0
  0
ARC
  5
880B
  8
ALPHA
 10
169.460502
 20
111.539091
 30
0.0
 40
5.0
 50
261.842227
 51
263.157773
  0
ARC
  5
880C
  8
ALPHA
 10
169.460502
 20
111.539091
 30
0.0
 40
5.0
 50
276.842227
 51
278.157773
  0
LINE
  5
880D
  8
ALPHA
 10
168.595856
 20
107.262827
 30
0.0
 11
168.795734
 21
107.255847
 31
0.0
  0
LINE
  5
880E
  8
ALPHA
 10
169.387269
 20
107.33973
 30
0.0
 11
169.533735
 21
107.33973
 31
0.0
  0
LINE
  5
880F
  8
ALPHA
 10
170.325148
 20
107.262827
 30
0.0
 11
170.12527
 21
107.255847
 31
0.0
  0
LINE
  5
8810
  8
ALPHA
 10
170.476639
 20
107.463865
 30
0.0
 11
170.428251
 21
107.657924
 31
0.0
  0
LINE
  5
8811
  8
ALPHA
 10
169.188907
 20
107.18475
 30
0.0
 11
168.994033
 21
107.229741
 31
0.0
  0
LINE
  5
8812
  8
ALPHA
 10
169.083524
 20
106.728287
 30
0.0
 11
168.88865
 21
106.773277
 31
0.0
  0
LINE
  5
8813
  8
ALPHA
 10
168.579507
 20
106.794642
 30
0.0
 11
168.779385
 21
106.787662
 31
0.0
  0
LINE
  5
8814
  8
ALPHA
 10
170.341498
 20
106.794642
 30
0.0
 11
170.141619
 21
106.787662
 31
0.0
  0
LINE
  5
8815
  8
ALPHA
 10
169.732097
 20
107.18475
 30
0.0
 11
169.926971
 21
107.229741
 31
0.0
  0
LINE
  5
8816
  8
ALPHA
 10
169.83748
 20
106.728287
 30
0.0
 11
170.032354
 21
106.773277
 31
0.0
  0
LINE
  5
8817
  8
ALPHA
 10
170.032354
 20
106.773277
 30
0.0
 11
170.056181
 21
106.574701
 31
0.0
  0
LINE
  5
8818
  8
ALPHA
 10
170.169999
 20
106.589686
 30
0.0
 11
170.141619
 21
106.787662
 31
0.0
  0
LINE
  5
8819
  8
ALPHA
 10
170.032354
 20
106.773277
 30
0.0
 11
169.926971
 21
107.229741
 31
0.0
  0
LINE
  5
881A
  8
ALPHA
 10
169.83748
 20
106.728287
 30
0.0
 11
169.732097
 21
107.18475
 31
0.0
  0
LINE
  5
881B
  8
ALPHA
 10
170.325148
 20
107.262827
 30
0.0
 11
170.341498
 21
106.794642
 31
0.0
  0
LINE
  5
881C
  8
ALPHA
 10
170.12527
 20
107.255847
 30
0.0
 11
170.141619
 21
106.787662
 31
0.0
  0
LINE
  5
881D
  8
ALPHA
 10
169.188907
 20
107.18475
 30
0.0
 11
169.083524
 21
106.728287
 31
0.0
  0
LINE
  5
881E
  8
ALPHA
 10
168.779385
 20
106.787662
 30
0.0
 11
168.751005
 21
106.589686
 31
0.0
  0
LINE
  5
881F
  8
ALPHA
 10
168.864823
 20
106.574701
 30
0.0
 11
168.88865
 21
106.773277
 31
0.0
  0
LINE
  5
8820
  8
ALPHA
 10
168.779385
 20
106.787662
 30
0.0
 11
168.795734
 21
107.255847
 31
0.0
  0
LINE
  5
8821
  8
ALPHA
 10
168.579507
 20
106.794642
 30
0.0
 11
168.595856
 21
107.262827
 31
0.0
  0
LINE
  5
8822
  8
ALPHA
 10
169.387269
 20
107.33973
 30
0.0
 11
169.390756
 21
107.539699
 31
0.0
  0
LINE
  5
8823
  8
ALPHA
 10
169.533735
 20
107.33973
 30
0.0
 11
169.530248
 21
107.539699
 31
0.0
  0
LINE
  5
8824
  8
ALPHA
 10
168.994033
 20
107.229741
 30
0.0
 11
168.88865
 21
106.773277
 31
0.0
  0
ARC
  5
8825
  8
ALPHA
 10
170.673239
 20
107.309521
 30
0.0
 40
0.399993
 50
28.0
 51
105.999089
  0
ARC
  5
8826
  8
ALPHA
 10
169.460502
 20
111.539091
 30
0.0
 40
4.8
 50
291.842227
 51
293.157773
  0
ARC
  5
8827
  8
ALPHA
 10
169.460502
 20
111.539091
 30
0.0
 40
4.8
 50
306.842227
 51
308.157773
  0
ARC
  5
8828
  8
ALPHA
 10
171.246352
 20
107.083674
 30
0.0
 40
0.2
 50
208.0
 51
291.842227
  0
ARC
  5
8829
  8
ALPHA
 10
170.673239
 20
107.309521
 30
0.0
 40
0.2
 50
28.0
 51
105.999089
  0
ARC
  5
882A
  8
ALPHA
 10
172.338647
 20
107.697701
 30
0.0
 40
0.2
 50
223.0
 51
306.842227
  0
ARC
  5
882B
  8
ALPHA
 10
171.72661
 20
107.767519
 30
0.0
 40
0.2
 50
43.0
 51
120.999089
  0
ARC
  5
882C
  8
ALPHA
 10
169.460502
 20
111.539091
 30
0.0
 40
4.2
 50
299.000911
 51
300.999089
  0
ARC
  5
882D
  8
ALPHA
 10
171.593726
 20
107.690799
 30
0.0
 40
0.2
 50
119.000911
 51
197.0
  0
ARC
  5
882E
  8
ALPHA
 10
171.348171
 20
107.125849
 30
0.0
 40
0.2
 50
293.157773
 51
17.0
  0
ARC
  5
882F
  8
ALPHA
 10
169.460502
 20
111.539091
 30
0.0
 40
5.0
 50
291.842227
 51
293.157773
  0
ARC
  5
8830
  8
ALPHA
 10
169.460502
 20
111.539091
 30
0.0
 40
5.0
 50
306.842227
 51
308.157773
  0
LINE
  5
8831
  8
ALPHA
 10
172.338647
 20
107.697701
 30
0.0
 11
172.45857
 21
107.537643
 31
0.0
  0
LINE
  5
8832
  8
ALPHA
 10
172.549647
 20
107.607529
 30
0.0
 11
172.426082
 21
107.764792
 31
0.0
  0
LINE
  5
8833
  8
ALPHA
 10
172.338647
 20
107.697701
 30
0.0
 11
172.019151
 21
108.040318
 31
0.0
  0
LINE
  5
8834
  8
ALPHA
 10
172.192376
 20
107.561301
 30
0.0
 11
171.87288
 21
107.903919
 31
0.0
  0
LINE
  5
8835
  8
ALPHA
 10
171.402465
 20
107.632324
 30
0.0
 11
171.539432
 21
107.184324
 31
0.0
  0
LINE
  5
8836
  8
ALPHA
 10
171.246352
 20
107.083674
 30
0.0
 11
171.320762
 21
106.898032
 31
0.0
  0
LINE
  5
8837
  8
ALPHA
 10
171.426824
 20
106.941964
 30
0.0
 11
171.348171
 21
107.125849
 31
0.0
  0
LINE
  5
8838
  8
ALPHA
 10
171.246352
 20
107.083674
 30
0.0
 11
171.026418
 21
107.497309
 31
0.0
  0
LINE
  5
8839
  8
ALPHA
 10
171.496761
 20
107.865721
 30
0.0
 11
171.399796
 21
108.040643
 31
0.0
  0
LINE
  5
883A
  8
ALPHA
 10
171.399596
 20
104.302293
 30
0.0
 11
171.233413
 21
104.922499
 31
0.0
  0
LINE
  5
883B
  8
ALPHA
 10
170.618115
 20
107.501774
 30
0.0
 11
170.56299
 21
107.694027
 31
0.0
  0
LINE
  5
883C
  8
ALPHA
 10
171.211204
 20
107.57385
 30
0.0
 11
171.348171
 21
107.125849
 31
0.0
  0
LINE
  5
883D
  8
ALPHA
 10
171.069762
 20
106.98978
 30
0.0
 11
170.849829
 21
107.403415
 31
0.0
  0
LINE
  5
883E
  8
ALPHA
 10
172.192376
 20
107.561301
 30
0.0
 11
172.338647
 21
107.697701
 31
0.0
  0
LINE
  5
883F
  8
ALPHA
 10
171.87288
 20
107.903919
 30
0.0
 11
172.019151
 21
108.040318
 31
0.0
  0
LINE
  5
8840
  8
ALPHA
 10
171.539432
 20
107.184324
 30
0.0
 11
171.348171
 21
107.125849
 31
0.0
  0
LINE
  5
8841
  8
ALPHA
 10
171.069762
 20
106.98978
 30
0.0
 11
171.246352
 21
107.083674
 31
0.0
  0
LINE
  5
8842
  8
ALPHA
 10
170.849829
 20
107.403415
 30
0.0
 11
171.026418
 21
107.497309
 31
0.0
  0
LINE
  5
8843
  8
ALPHA
 10
171.402465
 20
107.632324
 30
0.0
 11
171.211204
 21
107.57385
 31
0.0
  0
LINE
  5
8844
  8
ALPHA
 10
172.638107
 20
102.039091
 30
0.0
 11
172.638107
 21
100.239091
 31
0.0
  0
LINE
  5
8845
  8
ALPHA
 10
176.160502
 20
102.039091
 30
0.0
 11
176.160502
 21
99.889091
 31
0.0
  0
LINE
  5
8846
  8
ALPHA
 10
175.810502
 20
97.439091
 30
0.0
 11
175.810502
 21
98.589091
 31
0.0
  0
LINE
  5
8847
  8
ALPHA
 10
175.060502
 20
97.239091
 30
0.0
 11
175.060502
 21
97.439091
 31
0.0
  0
LINE
  5
8848
  8
ALPHA
 10
174.960502
 20
98.589091
 30
0.0
 11
174.960502
 21
99.889091
 31
0.0
  0
LINE
  5
8849
  8
ALPHA
 10
174.747399
 20
106.252194
 30
0.0
 11
174.304183
 21
106.69541
 31
0.0
  0
ARC
  5
884A
  8
ALPHA
 10
169.460502
 20
111.539091
 30
0.0
 40
7.15
 50
45.0
 51
75.0
  0
ARC
  5
884B
  8
ALPHA
 10
169.460502
 20
111.539091
 30
0.0
 40
7.4
 50
45.0
 51
75.0
  0
ARC
  5
884C
  8
ALPHA
 10
172.625549
 20
114.595638
 30
0.0
 40
0.399993
 50
224.000911
 51
302.0
  0
ARC
  5
884D
  8
ALPHA
 10
172.625549
 20
108.482544
 30
0.0
 40
0.399993
 50
58.0
 51
135.999089
  0
ARC
  5
884E
  8
ALPHA
 10
172.625549
 20
108.482544
 30
0.0
 40
0.2
 50
58.0
 51
135.999089
  0
ARC
  5
884F
  8
ALPHA
 10
172.426082
 20
115.313391
 30
0.0
 40
0.2
 50
328.0
 51
51.842227
  0
ARC
  5
8850
  8
ALPHA
 10
172.625549
 20
114.595638
 30
0.0
 40
0.2
 50
224.000911
 51
302.0
  0
LINE
  5
8851
  8
ALPHA
 10
172.595691
 20
115.207407
 30
0.0
 11
172.426082
 21
115.313391
 31
0.0
  0
LINE
  5
8852
  8
ALPHA
 10
172.595691
 20
115.207407
 30
0.0
 11
172.34744
 21
114.810122
 31
0.0
  0
ARC
  5
8853
  8
ALPHA
 10
169.060135
 20
113.989091
 30
0.0
 40
0.15
 50
160.0
 51
270.0
  0
ARC
  5
8854
  8
ALPHA
 10
169.860869
 20
113.989091
 30
0.0
 40
0.15
 50
270.0
 51
20.0
  0
POLYLINE
  5
8855
  8
ALPHA
 66
     1
 10
0.0
 20
0.0
 30
0.0
 70
   128
210
0.0
220
0.0
230
-1.0
  0
VERTEX
  5
8F24
  8
ALPHA
 10
-170.693586
 20
112.589759
 30
0.0
  0
VERTEX
  5
8F25
  8
ALPHA
 10
-170.970476
 20
112.255912
 30
0.0
  0
VERTEX
  5
8F26
  8
ALPHA
 10
-171.149966
 20
111.860437
 30
0.0
  0
VERTEX
  5
8F27
  8
ALPHA
 10
-171.225075
 20
111.433129
 30
0.0
  0
VERTEX
  5
8F28
  8
ALPHA
 10
-171.193007
 20
111.000307
 30
0.0
  0
VERTEX
  5
8F29
  8
ALPHA
 10
-171.058503
 20
110.587558
 30
0.0
  0
VERTEX
  5
8F2A
  8
ALPHA
 10
-170.831365
 20
110.217809
 30
0.0
  0
VERTEX
  5
8F2B
  8
ALPHA
 10
-170.526429
 20
109.908368
 30
0.0
  0
VERTEX
  5
8F2C
  8
ALPHA
 10
-170.159746
 20
109.675987
 30
0.0
  0
SEQEND
  5
8F2D
  8
ALPHA
  0
LINE
  5
8856
  8
ALPHA
 10
168.761274
 20
109.675981
 30
0.0
 11
168.641487
 21
109.725461
 31
0.0
  0
LINE
  5
8857
  8
ALPHA
 10
168.945576
 20
109.616878
 30
0.0
 11
168.761274
 21
109.675981
 31
0.0
  0
POLYLINE
  5
8858
  8
ALPHA
 66
     1
 10
0.0
 20
0.0
 30
0.0
 70
   128
210
0.0
220
0.0
230
-1.0
  0
VERTEX
  5
8F2E
  8
ALPHA
 10
-170.159746
 20
109.675987
 30
0.0
  0
VERTEX
  5
8F2F
  8
ALPHA
 10
-169.557399
 20
109.551165
 30
0.0
  0
VERTEX
  5
8F30
  8
ALPHA
 10
-168.945576
 20
109.616878
 30
0.0
  0
SEQEND
  5
8F31
  8
ALPHA
  0
LINE
  5
8859
  8
ALPHA
 10
168.761274
 20
109.675981
 30
0.0
 11
168.706088
 21
109.704112
 31
0.0
  0
CIRCLE
  5
885A
  8
ALPHA
 10
169.460502
 20
111.539091
 30
0.0
 40
0.753975
  0
LINE
  5
885B
  8
ALPHA
 10
169.060135
 20
113.839091
 30
0.0
 11
169.860869
 21
113.839091
 31
0.0
  0
ARC
  5
885C
  8
ALPHA
 10
169.460502
 20
111.539091
 30
0.0
 40
3.999999
 50
314.000911
 51
315.999089
  0
ARC
  5
885D
  8
ALPHA
 10
172.517049
 20
108.374045
 30
0.0
 40
0.399993
 50
134.000911
 51
212.0
  0
ARC
  5
885E
  8
ALPHA
 10
169.460502
 20
111.539091
 30
0.0
 40
4.2
 50
314.000911
 51
315.999089
  0
ARC
  5
885F
  8
ALPHA
 10
172.517049
 20
108.374045
 30
0.0
 40
0.2
 50
134.000911
 51
212.0
  0
LINE
  5
8860
  8
ALPHA
 10
172.481683
 20
108.621478
 30
0.0
 11
172.337817
 21
108.760412
 31
0.0
  0
LINE
  5
8861
  8
ALPHA
 10
172.378115
 20
108.517911
 30
0.0
 11
172.239181
 21
108.661776
 31
0.0
  0
LINE
  5
8862
  8
ALPHA
 10
172.378115
 20
108.517911
 30
0.0
 11
172.481683
 21
108.621478
 31
0.0
  0
LINE
  5
8863
  8
ALPHA
 10
172.34744
 20
108.268061
 30
0.0
 11
172.17783
 21
108.162077
 31
0.0
  0
ARC
  5
8864
  8
ALPHA
 10
169.460502
 20
111.539091
 30
0.0
 40
3.999996
 50
74.000911
 51
75.999089
  0
ARC
  5
8865
  8
ALPHA
 10
169.460502
 20
111.539091
 30
0.0
 40
4.2
 50
74.000911
 51
75.999089
  0
LINE
  5
8866
  8
ALPHA
 10
170.618115
 20
115.576409
 30
0.0
 11
170.476639
 21
115.614317
 31
0.0
  0
ARC
  5
8867
  8
ALPHA
 10
168.395978
 20
115.808376
 30
0.0
 40
0.399993
 50
284.000911
 51
2.0
  0
ARC
  5
8868
  8
ALPHA
 10
169.383781
 20
115.938422
 30
0.0
 40
0.399993
 50
193.0
 51
270.999089
  0
ARC
  5
8869
  8
ALPHA
 10
169.460502
 20
111.539091
 30
0.0
 40
3.999993
 50
89.000911
 51
90.999089
  0
ARC
  5
886A
  8
ALPHA
 10
169.537223
 20
115.938422
 30
0.0
 40
0.399993
 50
269.000911
 51
347.0
  0
ARC
  5
886B
  8
ALPHA
 10
170.525026
 20
115.808376
 30
0.0
 40
0.399993
 50
178.0
 51
255.999089
  0
ARC
  5
886C
  8
ALPHA
 10
169.460502
 20
111.539091
 30
0.0
 40
4.8
 50
81.842227
 51
83.157773
  0
ARC
  5
886D
  8
ALPHA
 10
169.460502
 20
111.539091
 30
0.0
 40
4.8
 50
96.842227
 51
98.157773
  0
ARC
  5
886E
  8
ALPHA
 10
169.460502
 20
111.539091
 30
0.0
 40
5.0
 50
81.842227
 51
83.157773
  0
ARC
  5
886F
  8
ALPHA
 10
169.460502
 20
111.539091
 30
0.0
 40
5.0
 50
96.842227
 51
98.157773
  0
ARC
  5
8870
  8
ALPHA
 10
168.779385
 20
116.29052
 30
0.0
 40
0.2
 50
98.157773
 51
182.0
  0
ARC
  5
8871
  8
ALPHA
 10
168.88865
 20
116.304906
 30
0.0
 40
0.2
 50
13.0
 51
96.842227
  0
ARC
  5
8872
  8
ALPHA
 10
169.383781
 20
115.938422
 30
0.0
 40
0.2
 50
193.0
 51
270.999089
  0
ARC
  5
8873
  8
ALPHA
 10
169.460502
 20
111.539091
 30
0.0
 40
4.2
 50
89.000911
 51
90.999089
  0
ARC
  5
8874
  8
ALPHA
 10
169.537223
 20
115.938422
 30
0.0
 40
0.2
 50
269.000911
 51
347.0
  0
ARC
  5
8875
  8
ALPHA
 10
170.032354
 20
116.304906
 30
0.0
 40
0.2
 50
83.157773
 51
167.0
  0
ARC
  5
8876
  8
ALPHA
 10
170.141619
 20
116.29052
 30
0.0
 40
0.2
 50
358.0
 51
81.842227
  0
ARC
  5
8877
  8
ALPHA
 10
170.525026
 20
115.808376
 30
0.0
 40
0.2
 50
178.0
 51
255.999089
  0
ARC
  5
8878
  8
ALPHA
 10
169.460502
 20
115.089091
 30
0.0
 40
0.15
 50
20.0
 51
160.0
  0
LINE
  5
8879
  8
ALPHA
 10
169.83748
 20
116.349896
 30
0.0
 11
170.032354
 21
116.304906
 31
0.0
  0
LINE
  5
887A
  8
ALPHA
 10
169.732097
 20
115.893432
 30
0.0
 11
169.926971
 21
115.848442
 31
0.0
  0
LINE
  5
887B
  8
ALPHA
 10
170.341498
 20
116.283541
 30
0.0
 11
170.141619
 21
116.29052
 31
0.0
  0
LINE
  5
887C
  8
ALPHA
 10
170.325148
 20
115.815355
 30
0.0
 11
170.12527
 21
115.822335
 31
0.0
  0
LINE
  5
887D
  8
ALPHA
 10
169.533735
 20
115.738453
 30
0.0
 11
169.387269
 21
115.738453
 31
0.0
  0
LINE
  5
887E
  8
ALPHA
 10
168.579507
 20
116.283541
 30
0.0
 11
168.779385
 21
116.29052
 31
0.0
  0
LINE
  5
887F
  8
ALPHA
 10
168.595856
 20
115.815355
 30
0.0
 11
168.795734
 21
115.822335
 31
0.0
  0
LINE
  5
8880
  8
ALPHA
 10
169.083524
 20
116.349896
 30
0.0
 11
168.88865
 21
116.304906
 31
0.0
  0
LINE
  5
8881
  8
ALPHA
 10
169.188907
 20
115.893432
 30
0.0
 11
168.994033
 21
115.848442
 31
0.0
  0
LINE
  5
8882
  8
ALPHA
 10
170.001823
 20
114.040394
 30
0.0
 11
169.601456
 21
115.140394
 31
0.0
  0
LINE
  5
8883
  8
ALPHA
 10
169.083524
 20
116.349896
 30
0.0
 11
169.188907
 21
115.893432
 31
0.0
  0
LINE
  5
8884
  8
ALPHA
 10
168.88865
 20
116.304906
 30
0.0
 11
168.994033
 21
115.848442
 31
0.0
  0
LINE
  5
8885
  8
ALPHA
 10
168.88865
 20
116.304906
 30
0.0
 11
168.864823
 21
116.503481
 31
0.0
  0
LINE
  5
8886
  8
ALPHA
 10
168.751005
 20
116.488497
 30
0.0
 11
168.779385
 21
116.29052
 31
0.0
  0
LINE
  5
8887
  8
ALPHA
 10
170.341498
 20
116.283541
 30
0.0
 11
170.325148
 21
115.815355
 31
0.0
  0
LINE
  5
8888
  8
ALPHA
 10
170.141619
 20
116.29052
 30
0.0
 11
170.12527
 21
115.822335
 31
0.0
  0
LINE
  5
8889
  8
ALPHA
 10
170.141619
 20
116.29052
 30
0.0
 11
170.169999
 21
116.488497
 31
0.0
  0
LINE
  5
888A
  8
ALPHA
 10
170.056181
 20
116.503481
 30
0.0
 11
170.032354
 21
116.304906
 31
0.0
  0
LINE
  5
888B
  8
ALPHA
 10
169.533735
 20
115.738453
 30
0.0
 11
169.530248
 21
115.538483
 31
0.0
  0
LINE
  5
888C
  8
ALPHA
 10
169.387269
 20
115.738453
 30
0.0
 11
169.390756
 21
115.538483
 31
0.0
  0
LINE
  5
888D
  8
ALPHA
 10
168.795734
 20
115.822335
 30
0.0
 11
168.779385
 21
116.29052
 31
0.0
  0
LINE
  5
888E
  8
ALPHA
 10
168.595856
 20
115.815355
 30
0.0
 11
168.579507
 21
116.283541
 31
0.0
  0
LINE
  5
888F
  8
ALPHA
 10
170.476639
 20
115.614317
 30
0.0
 11
170.428251
 21
115.420259
 31
0.0
  0
LINE
  5
8890
  8
ALPHA
 10
169.926971
 20
115.848442
 30
0.0
 11
170.032354
 21
116.304906
 31
0.0
  0
LINE
  5
8891
  8
ALPHA
 10
169.732097
 20
115.893432
 30
0.0
 11
169.83748
 21
116.349896
 31
0.0
  0
LINE
  5
8892
  8
ALPHA
 10
169.319548
 20
115.140394
 30
0.0
 11
168.919181
 21
114.040394
 31
0.0
  0
ARC
  5
8893
  8
ALPHA
 10
172.517049
 20
114.704138
 30
0.0
 40
0.399993
 50
148.0
 51
225.999089
  0
ARC
  5
8894
  8
ALPHA
 10
169.460502
 20
111.539091
 30
0.0
 40
3.999998
 50
44.000911
 51
45.999089
  0
ARC
  5
8895
  8
ALPHA
 10
171.72661
 20
115.310663
 30
0.0
 40
0.399997
 50
239.000911
 51
317.0
  0
ARC
  5
8896
  8
ALPHA
 10
169.460502
 20
111.539091
 30
0.0
 40
3.999992
 50
59.000911
 51
60.999089
  0
ARC
  5
8897
  8
ALPHA
 10
171.593726
 20
115.387384
 30
0.0
 40
0.399997
 50
163.0
 51
240.999089
  0
ARC
  5
8898
  8
ALPHA
 10
170.673239
 20
115.768662
 30
0.0
 40
0.399993
 50
254.000911
 51
332.0
  0
ARC
  5
8899
  8
ALPHA
 10
169.460502
 20
111.539091
 30
0.0
 40
4.8
 50
51.842227
 51
53.157773
  0
ARC
  5
889A
  8
ALPHA
 10
169.460502
 20
111.539091
 30
0.0
 40
4.8
 50
66.842227
 51
68.157773
  0
ARC
  5
889B
  8
ALPHA
 10
169.460502
 20
111.539091
 30
0.0
 40
5.0
 50
51.842227
 51
53.157773
  0
ARC
  5
889C
  8
ALPHA
 10
169.460502
 20
111.539091
 30
0.0
 40
5.0
 50
66.842227
 51
68.157773
  0
ARC
  5
889D
  8
ALPHA
 10
172.517049
 20
114.704138
 30
0.0
 40
0.2
 50
148.0
 51
225.999089
  0
ARC
  5
889E
  8
ALPHA
 10
169.460502
 20
111.539091
 30
0.0
 40
4.2
 50
44.000911
 51
45.999089
  0
ARC
  5
889F
  8
ALPHA
 10
172.338647
 20
115.380482
 30
0.0
 40
0.2
 50
53.157773
 51
137.0
  0
ARC
  5
88A0
  8
ALPHA
 10
171.72661
 20
115.310663
 30
0.0
 40
0.2
 50
239.000911
 51
317.0
  0
ARC
  5
88A1
  8
ALPHA
 10
169.460502
 20
111.539091
 30
0.0
 40
4.2
 50
59.000911
 51
60.999089
  0
ARC
  5
88A2
  8
ALPHA
 10
171.593726
 20
115.387384
 30
0.0
 40
0.2
 50
163.0
 51
240.999089
  0
ARC
  5
88A3
  8
ALPHA
 10
171.348171
 20
115.952333
 30
0.0
 40
0.2
 50
343.0
 51
66.842227
  0
ARC
  5
88A4
  8
ALPHA
 10
170.673239
 20
115.768662
 30
0.0
 40
0.2
 50
254.000911
 51
332.0
  0
ARC
  5
88A5
  8
ALPHA
 10
171.246352
 20
115.994508
 30
0.0
 40
0.2
 50
68.157773
 51
152.0
  0
LINE
  5
88A6
  8
ALPHA
 10
171.348171
 20
115.952333
 30
0.0
 11
171.539432
 21
115.893859
 31
0.0
  0
LINE
  5
88A7
  8
ALPHA
 10
171.211204
 20
115.504333
 30
0.0
 11
171.402465
 21
115.445858
 31
0.0
  0
LINE
  5
88A8
  8
ALPHA
 10
172.338647
 20
115.380482
 30
0.0
 11
172.192376
 21
115.516881
 31
0.0
  0
LINE
  5
88A9
  8
ALPHA
 10
172.34744
 20
114.810122
 30
0.0
 11
172.17783
 21
114.916106
 31
0.0
  0
LINE
  5
88AA
  8
ALPHA
 10
171.623605
 20
115.139228
 30
0.0
 11
171.496761
 21
115.212462
 31
0.0
  0
LINE
  5
88AB
  8
ALPHA
 10
171.069762
 20
116.088403
 30
0.0
 11
171.246352
 21
115.994508
 31
0.0
  0
LINE
  5
88AC
  8
ALPHA
 10
170.849829
 20
115.674768
 30
0.0
 11
171.026418
 21
115.580873
 31
0.0
  0
LINE
  5
88AD
  8
ALPHA
 10
172.481683
 20
114.456705
 30
0.0
 11
172.378115
 21
114.560272
 31
0.0
  0
LINE
  5
88AE
  8
ALPHA
 10
172.019151
 20
115.037864
 30
0.0
 11
171.87288
 21
115.174264
 31
0.0
  0
LINE
  5
88AF
  8
ALPHA
 10
171.402465
 20
115.445858
 30
0.0
 11
171.539432
 21
115.893859
 31
0.0
  0
LINE
  5
88B0
  8
ALPHA
 10
171.211204
 20
115.504333
 30
0.0
 11
171.348171
 21
115.952333
 31
0.0
  0
LINE
  5
88B1
  8
ALPHA
 10
170.618115
 20
115.576409
 30
0.0
 11
170.56299
 21
115.384156
 31
0.0
  0
LINE
  5
88B2
  8
ALPHA
 10
171.399461
 20
118.775386
 30
0.0
 11
171.233413
 21
118.155683
 31
0.0
  0
LINE
  5
88B3
  8
ALPHA
 10
172.426082
 20
115.313391
 30
0.0
 11
172.17783
 21
114.916106
 31
0.0
  0
LINE
  5
88B4
  8
ALPHA
 10
171.399796
 20
115.037539
 30
0.0
 11
171.496761
 21
115.212462
 31
0.0
  0
LINE
  5
88B5
  8
ALPHA
 10
171.348171
 20
115.952333
 30
0.0
 11
171.426824
 21
116.136218
 31
0.0
  0
LINE
  5
88B6
  8
ALPHA
 10
171.320762
 20
116.180151
 30
0.0
 11
171.246352
 21
115.994508
 31
0.0
  0
LINE
  5
88B7
  8
ALPHA
 10
172.426082
 20
115.313391
 30
0.0
 11
172.549647
 21
115.470654
 31
0.0
  0
LINE
  5
88B8
  8
ALPHA
 10
172.45857
 20
115.54054
 30
0.0
 11
172.338647
 21
115.380482
 31
0.0
  0
LINE
  5
88B9
  8
ALPHA
 10
171.5206
 20
114.967793
 30
0.0
 11
171.623605
 21
115.139228
 31
0.0
  0
LINE
  5
88BA
  8
ALPHA
 10
171.026418
 20
115.580873
 30
0.0
 11
171.246352
 21
115.994508
 31
0.0
  0
LINE
  5
88BB
  8
ALPHA
 10
170.849829
 20
115.674768
 30
0.0
 11
171.069762
 21
116.088403
 31
0.0
  0
LINE
  5
88BC
  8
ALPHA
 10
172.481683
 20
114.456705
 30
0.0
 11
172.337817
 21
114.317771
 31
0.0
  0
LINE
  5
88BD
  8
ALPHA
 10
172.378115
 20
114.560272
 30
0.0
 11
172.239181
 21
114.416406
 31
0.0
  0
LINE
  5
88BE
  8
ALPHA
 10
172.338647
 20
115.380482
 30
0.0
 11
172.019151
 21
115.037864
 31
0.0
  0
LINE
  5
88BF
  8
ALPHA
 10
172.192376
 20
115.516881
 30
0.0
 11
171.87288
 21
115.174264
 31
0.0
  0
ARC
  5
88C0
  8
ALPHA
 10
169.460502
 20
111.539091
 30
0.0
 40
6.935285
 50
15.0
 51
45.0
  0
ARC
  5
88C1
  8
ALPHA
 10
173.232074
 20
113.805199
 30
0.0
 40
0.399993
 50
133.0
 51
210.999089
  0
ARC
  5
88C2
  8
ALPHA
 10
173.232074
 20
113.805199
 30
0.0
 40
0.2
 50
133.0
 51
210.999089
  0
ARC
  5
88C3
  8
ALPHA
 10
173.308795
 20
109.405868
 30
0.0
 40
0.399993
 50
73.0
 51
150.999089
  0
ARC
  5
88C4
  8
ALPHA
 10
169.460502
 20
111.539091
 30
0.0
 40
3.999989
 50
329.000911
 51
330.999089
  0
ARC
  5
88C5
  8
ALPHA
 10
173.232074
 20
109.272984
 30
0.0
 40
0.399993
 50
149.000911
 51
227.0
  0
ARC
  5
88C6
  8
ALPHA
 10
173.729786
 20
110.474567
 30
0.0
 40
0.399993
 50
88.0
 51
165.999089
  0
ARC
  5
88C7
  8
ALPHA
 10
169.460502
 20
111.539091
 30
0.0
 40
4.0
 50
344.000911
 51
345.999089
  0
ARC
  5
88C8
  8
ALPHA
 10
173.690073
 20
110.326354
 30
0.0
 40
0.399993
 50
164.000911
 51
242.0
  0
ARC
  5
88C9
  8
ALPHA
 10
173.859833
 20
111.615812
 30
0.0
 40
0.399993
 50
103.0
 51
180.999089
  0
ARC
  5
88CA
  8
ALPHA
 10
169.460502
 20
111.539091
 30
0.0
 40
3.999989
 50
359.000911
 51
0.999089
  0
ARC
  5
88CB
  8
ALPHA
 10
173.859833
 20
111.462371
 30
0.0
 40
0.399993
 50
179.000911
 51
257.0
  0
ARC
  5
88CC
  8
ALPHA
 10
173.690073
 20
112.751828
 30
0.0
 40
0.399993
 50
118.0
 51
195.999089
  0
ARC
  5
88CD
  8
ALPHA
 10
169.460502
 20
111.539091
 30
0.0
 40
4.0
 50
14.000911
 51
15.999089
  0
ARC
  5
88CE
  8
ALPHA
 10
173.729786
 20
112.603616
 30
0.0
 40
0.399993
 50
194.000911
 51
272.0
  0
ARC
  5
88CF
  8
ALPHA
 10
169.460502
 20
111.539091
 30
0.0
 40
4.8
 50
321.842227
 51
323.157773
  0
ARC
  5
88D0
  8
ALPHA
 10
169.460502
 20
111.539091
 30
0.0
 40
4.8
 50
336.842227
 51
338.157773
  0
ARC
  5
88D1
  8
ALPHA
 10
169.460502
 20
111.539091
 30
0.0
 40
4.8
 50
351.842227
 51
353.157773
  0
ARC
  5
88D2
  8
ALPHA
 10
169.460502
 20
111.539091
 30
0.0
 40
4.8
 50
6.842227
 51
8.157773
  0
ARC
  5
88D3
  8
ALPHA
 10
169.460502
 20
111.539091
 30
0.0
 40
4.8
 50
21.842227
 51
23.157773
  0
ARC
  5
88D4
  8
ALPHA
 10
169.460502
 20
111.539091
 30
0.0
 40
3.99999
 50
29.000911
 51
30.999089
  0
ARC
  5
88D5
  8
ALPHA
 10
173.308795
 20
113.672315
 30
0.0
 40
0.399993
 50
209.000911
 51
287.0
  0
ARC
  5
88D6
  8
ALPHA
 10
173.234802
 20
108.573512
 30
0.0
 40
0.2
 50
238.0
 51
321.842227
  0
ARC
  5
88D7
  8
ALPHA
 10
173.873744
 20
109.651422
 30
0.0
 40
0.2
 50
253.0
 51
336.842227
  0
ARC
  5
88D8
  8
ALPHA
 10
173.308795
 20
109.405868
 30
0.0
 40
0.2
 50
73.0
 51
150.999089
  0
ARC
  5
88D9
  8
ALPHA
 10
169.460502
 20
111.539091
 30
0.0
 40
4.2
 50
329.000911
 51
330.999089
  0
ARC
  5
88DA
  8
ALPHA
 10
173.232074
 20
109.272984
 30
0.0
 40
0.2
 50
149.000911
 51
227.0
  0
ARC
  5
88DB
  8
ALPHA
 10
173.301892
 20
108.660946
 30
0.0
 40
0.2
 50
323.157773
 51
47.0
  0
ARC
  5
88DC
  8
ALPHA
 10
174.211931
 20
110.857974
 30
0.0
 40
0.2
 50
268.0
 51
351.842227
  0
ARC
  5
88DD
  8
ALPHA
 10
173.729786
 20
110.474567
 30
0.0
 40
0.2
 50
88.0
 51
165.999089
  0
ARC
  5
88DE
  8
ALPHA
 10
169.460502
 20
111.539091
 30
0.0
 40
4.2
 50
344.000911
 51
345.999089
  0
ARC
  5
88DF
  8
ALPHA
 10
173.690073
 20
110.326354
 30
0.0
 40
0.2
 50
164.000911
 51
242.0
  0
ARC
  5
88E0
  8
ALPHA
 10
173.915919
 20
109.753242
 30
0.0
 40
0.2
 50
338.157773
 51
62.0
  0
ARC
  5
88E1
  8
ALPHA
 10
174.226316
 20
112.110943
 30
0.0
 40
0.2
 50
283.0
 51
6.842227
  0
ARC
  5
88E2
  8
ALPHA
 10
173.859833
 20
111.615812
 30
0.0
 40
0.2
 50
103.0
 51
180.999089
  0
ARC
  5
88E3
  8
ALPHA
 10
169.460502
 20
111.539091
 30
0.0
 40
4.2
 50
359.000911
 51
0.999089
  0
ARC
  5
88E4
  8
ALPHA
 10
173.859833
 20
111.462371
 30
0.0
 40
0.2
 50
179.000911
 51
257.0
  0
ARC
  5
88E5
  8
ALPHA
 10
174.226316
 20
110.96724
 30
0.0
 40
0.2
 50
353.157773
 51
77.0
  0
ARC
  5
88E6
  8
ALPHA
 10
173.915919
 20
113.324941
 30
0.0
 40
0.2
 50
298.0
 51
21.842227
  0
ARC
  5
88E7
  8
ALPHA
 10
173.690073
 20
112.751828
 30
0.0
 40
0.2
 50
118.0
 51
195.999089
  0
ARC
  5
88E8
  8
ALPHA
 10
169.460502
 20
111.539091
 30
0.0
 40
4.2
 50
14.000911
 51
15.999089
  0
ARC
  5
88E9
  8
ALPHA
 10
173.729786
 20
112.603616
 30
0.0
 40
0.2
 50
194.000911
 51
272.0
  0
ARC
  5
88EA
  8
ALPHA
 10
169.460502
 20
111.539091
 30
0.0
 40
5.0
 50
321.842227
 51
323.157773
  0
ARC
  5
88EB
  8
ALPHA
 10
169.460502
 20
111.539091
 30
0.0
 40
5.0
 50
336.842227
 51
338.157773
  0
ARC
  5
88EC
  8
ALPHA
 10
169.460502
 20
111.539091
 30
0.0
 40
5.0
 50
351.842227
 51
353.157773
  0
ARC
  5
88ED
  8
ALPHA
 10
169.460502
 20
111.539091
 30
0.0
 40
5.0
 50
6.842227
 51
8.157773
  0
ARC
  5
88EE
  8
ALPHA
 10
169.460502
 20
111.539091
 30
0.0
 40
5.0
 50
21.842227
 51
23.157773
  0
ARC
  5
88EF
  8
ALPHA
 10
174.211931
 20
112.220209
 30
0.0
 40
0.2
 50
8.157773
 51
92.0
  0
ARC
  5
88F0
  8
ALPHA
 10
169.460502
 20
111.539091
 30
0.0
 40
4.2
 50
29.000911
 51
30.999089
  0
ARC
  5
88F1
  8
ALPHA
 10
173.308795
 20
113.672315
 30
0.0
 40
0.2
 50
209.000911
 51
287.0
  0
ARC
  5
88F2
  8
ALPHA
 10
173.873744
 20
113.42676
 30
0.0
 40
0.2
 50
23.157773
 51
107.0
  0
LINE
  5
88F3
  8
ALPHA
 10
174.009813
 20
113.148351
 30
0.0
 11
173.915919
 21
113.324941
 31
0.0
  0
LINE
  5
88F4
  8
ALPHA
 10
173.596178
 20
112.928418
 30
0.0
 11
173.502284
 21
113.105007
 31
0.0
  0
LINE
  5
88F5
  8
ALPHA
 10
173.133872
 20
113.57535
 30
0.0
 11
173.060639
 21
113.702194
 31
0.0
  0
LINE
  5
88F6
  8
ALPHA
 10
173.814843
 20
111.267497
 30
0.0
 11
174.271307
 21
111.162114
 31
0.0
  0
LINE
  5
88F7
  8
ALPHA
 10
173.736766
 20
112.403737
 30
0.0
 11
174.204951
 21
112.420087
 31
0.0
  0
LINE
  5
88F8
  8
ALPHA
 10
173.743746
 20
112.203859
 30
0.0
 11
174.211931
 21
112.220209
 31
0.0
  0
LINE
  5
88F9
  8
ALPHA
 10
174.271307
 20
111.916069
 30
0.0
 11
174.226316
 21
112.110943
 31
0.0
  0
LINE
  5
88FA
  8
ALPHA
 10
173.81527
 20
113.618021
 30
0.0
 11
173.873744
 21
113.42676
 31
0.0
  0
LINE
  5
88FB
  8
ALPHA
 10
173.367269
 20
113.481054
 30
0.0
 11
173.425744
 21
113.289793
 31
0.0
  0
LINE
  5
88FC
  8
ALPHA
 10
173.596178
 20
110.149765
 30
0.0
 11
174.009813
 21
109.929831
 31
0.0
  0
LINE
  5
88FD
  8
ALPHA
 10
173.502284
 20
109.973175
 30
0.0
 11
173.915919
 21
109.753242
 31
0.0
  0
LINE
  5
88FE
  8
ALPHA
 10
173.873744
 20
109.651422
 30
0.0
 11
174.057629
 21
109.572769
 31
0.0
  0
LINE
  5
88FF
  8
ALPHA
 10
174.101561
 20
109.678831
 30
0.0
 11
173.915919
 21
109.753242
 31
0.0
  0
LINE
  5
8900
  8
ALPHA
 10
173.49782
 20
110.381479
 30
0.0
 11
173.305566
 21
110.436603
 31
0.0
  0
LINE
  5
8901
  8
ALPHA
 10
173.535728
 20
110.522955
 30
0.0
 11
173.34167
 21
110.571342
 31
0.0
  0
LINE
  5
8902
  8
ALPHA
 10
173.769853
 20
111.072623
 30
0.0
 11
174.226316
 21
110.96724
 31
0.0
  0
LINE
  5
8903
  8
ALPHA
 10
174.211931
 20
110.857974
 30
0.0
 11
174.409907
 21
110.829594
 31
0.0
  0
LINE
  5
8904
  8
ALPHA
 10
174.424892
 20
110.943413
 30
0.0
 11
174.226316
 21
110.96724
 31
0.0
  0
LINE
  5
8905
  8
ALPHA
 10
174.211931
 20
110.857974
 30
0.0
 11
173.743746
 21
110.874323
 31
0.0
  0
LINE
  5
8906
  8
ALPHA
 10
174.204951
 20
110.658096
 30
0.0
 11
173.736766
 21
110.674445
 31
0.0
  0
LINE
  5
8907
  8
ALPHA
 10
173.659864
 20
111.465858
 30
0.0
 11
173.459894
 21
111.469345
 31
0.0
  0
LINE
  5
8908
  8
ALPHA
 10
173.659864
 20
111.612325
 30
0.0
 11
173.459894
 21
111.608837
 31
0.0
  0
LINE
  5
8909
  8
ALPHA
 10
174.226316
 20
112.110943
 30
0.0
 11
174.424892
 21
112.13477
 31
0.0
  0
LINE
  5
890A
  8
ALPHA
 10
174.409907
 20
112.248589
 30
0.0
 11
174.211931
 21
112.220209
 31
0.0
  0
LINE
  5
890B
  8
ALPHA
 10
174.226316
 20
112.110943
 30
0.0
 11
173.769853
 21
112.00556
 31
0.0
  0
LINE
  5
890C
  8
ALPHA
 10
173.535728
 20
112.555228
 30
0.0
 11
173.34167
 21
112.506841
 31
0.0
  0
LINE
  5
890D
  8
ALPHA
 10
173.814843
 20
111.810686
 30
0.0
 11
173.769853
 21
112.00556
 31
0.0
  0
LINE
  5
890E
  8
ALPHA
 10
173.535728
 20
112.555228
 30
0.0
 11
173.49782
 21
112.696704
 31
0.0
  0
LINE
  5
890F
  8
ALPHA
 10
173.095675
 20
109.126713
 30
0.0
 11
173.438292
 21
108.807217
 31
0.0
  0
LINE
  5
8910
  8
ALPHA
 10
172.959275
 20
108.980442
 30
0.0
 11
173.301892
 21
108.660946
 31
0.0
  0
LINE
  5
8911
  8
ALPHA
 10
173.234802
 20
108.573512
 30
0.0
 11
173.392064
 21
108.449946
 31
0.0
  0
LINE
  5
8912
  8
ALPHA
 10
173.46195
 20
108.541023
 30
0.0
 11
173.301892
 21
108.660946
 31
0.0
  0
LINE
  5
8913
  8
ALPHA
 10
173.234802
 20
108.573512
 30
0.0
 11
172.837516
 21
108.821763
 31
0.0
  0
LINE
  5
8914
  8
ALPHA
 10
173.128818
 20
108.403902
 30
0.0
 11
172.731532
 21
108.652154
 31
0.0
  0
LINE
  5
8915
  8
ALPHA
 10
173.060639
 20
109.375989
 30
0.0
 11
172.889204
 21
109.478994
 31
0.0
  0
LINE
  5
8916
  8
ALPHA
 10
173.133872
 20
109.502832
 30
0.0
 11
172.95895
 21
109.599797
 31
0.0
  0
LINE
  5
8917
  8
ALPHA
 10
173.873744
 20
109.651422
 30
0.0
 11
173.425744
 21
109.78839
 31
0.0
  0
LINE
  5
8918
  8
ALPHA
 10
173.81527
 20
109.460161
 30
0.0
 11
173.367269
 21
109.597129
 31
0.0
  0
LINE
  5
8919
  8
ALPHA
 10
174.271307
 20
111.916069
 30
0.0
 11
173.814843
 21
111.810686
 31
0.0
  0
LINE
  5
891A
  8
ALPHA
 10
174.204951
 20
112.420087
 30
0.0
 11
174.211931
 21
112.220209
 31
0.0
  0
LINE
  5
891B
  8
ALPHA
 10
174.204951
 20
110.658096
 30
0.0
 11
174.211931
 21
110.857974
 31
0.0
  0
LINE
  5
891C
  8
ALPHA
 10
173.736766
 20
110.674445
 30
0.0
 11
173.743746
 21
110.874323
 31
0.0
  0
LINE
  5
891D
  8
ALPHA
 10
173.659864
 20
111.465858
 30
0.0
 11
173.659864
 21
111.612325
 31
0.0
  0
LINE
  5
891E
  8
ALPHA
 10
173.736766
 20
112.403737
 30
0.0
 11
173.743746
 21
112.203859
 31
0.0
  0
LINE
  5
891F
  8
ALPHA
 10
173.81527
 20
109.460161
 30
0.0
 11
173.873744
 21
109.651422
 31
0.0
  0
LINE
  5
8920
  8
ALPHA
 10
174.271307
 20
111.162114
 30
0.0
 11
174.226316
 21
110.96724
 31
0.0
  0
LINE
  5
8921
  8
ALPHA
 10
173.814843
 20
111.267497
 30
0.0
 11
173.769853
 21
111.072623
 31
0.0
  0
LINE
  5
8922
  8
ALPHA
 10
174.009813
 20
109.929831
 30
0.0
 11
173.915919
 21
109.753242
 31
0.0
  0
LINE
  5
8923
  8
ALPHA
 10
173.367269
 20
109.597129
 30
0.0
 11
173.425744
 21
109.78839
 31
0.0
  0
LINE
  5
8924
  8
ALPHA
 10
173.49782
 20
110.381479
 30
0.0
 11
173.535728
 21
110.522955
 31
0.0
  0
LINE
  5
8925
  8
ALPHA
 10
173.128818
 20
108.403902
 30
0.0
 11
173.234802
 21
108.573512
 31
0.0
  0
LINE
  5
8926
  8
ALPHA
 10
172.731532
 20
108.652154
 30
0.0
 11
172.837516
 21
108.821763
 31
0.0
  0
LINE
  5
8927
  8
ALPHA
 10
173.060639
 20
109.375989
 30
0.0
 11
173.133872
 21
109.502832
 31
0.0
  0
LINE
  5
8928
  8
ALPHA
 10
173.596178
 20
110.149765
 30
0.0
 11
173.502284
 21
109.973175
 31
0.0
  0
LINE
  5
8929
  8
ALPHA
 10
173.438292
 20
108.807217
 30
0.0
 11
173.301892
 21
108.660946
 31
0.0
  0
LINE
  5
892A
  8
ALPHA
 10
173.095675
 20
109.126713
 30
0.0
 11
172.959275
 21
108.980442
 31
0.0
  0
LINE
  5
892B
  8
ALPHA
 10
174.009813
 20
113.148351
 30
0.0
 11
173.596178
 21
112.928418
 31
0.0
  0
LINE
  5
892C
  8
ALPHA
 10
173.915919
 20
113.324941
 30
0.0
 11
173.502284
 21
113.105007
 31
0.0
  0
LINE
  5
892D
  8
ALPHA
 10
173.49782
 20
112.696704
 30
0.0
 11
173.305566
 21
112.64158
 31
0.0
  0
LINE
  5
892E
  8
ALPHA
 10
173.915919
 20
113.324941
 30
0.0
 11
174.101561
 21
113.399351
 31
0.0
  0
LINE
  5
892F
  8
ALPHA
 10
174.057629
 20
113.505413
 30
0.0
 11
173.873744
 21
113.42676
 31
0.0
  0
LINE
  5
8930
  8
ALPHA
 10
173.133872
 20
113.57535
 30
0.0
 11
172.95895
 21
113.478385
 31
0.0
  0
LINE
  5
8931
  8
ALPHA
 10
173.060639
 20
113.702194
 30
0.0
 11
172.889204
 21
113.599189
 31
0.0
  0
LINE
  5
8932
  8
ALPHA
 10
173.425744
 20
113.289793
 30
0.0
 11
173.873744
 21
113.42676
 31
0.0
  0
LINE
  5
8933
  8
ALPHA
 10
173.367269
 20
113.481054
 30
0.0
 11
173.81527
 21
113.618021
 31
0.0
  0
ARC
  5
8934
  8
ALPHA
 10
169.460502
 20
111.539091
 30
0.0
 40
7.15
 50
345.0
 51
15.0
  0
LINE
  5
8935
  8
ALPHA
 10
176.694239
 20
109.600817
 30
0.0
 11
176.077094
 21
109.766181
 31
0.0
  0
LINE
  5
8936
  8
ALPHA
 10
176.692504
 20
113.476901
 30
0.0
 11
176.077094
 21
113.312002
 31
0.0
  0
LINE
  5
8937
  8
ALPHA
 10
174.747142
 20
116.825731
 30
0.0
 11
174.304183
 21
116.382773
 31
0.0
  0
ARC
  5
8938
  8
ALPHA
 10
169.460502
 20
111.539091
 30
0.0
 40
4.8
 50
36.842227
 51
38.157773
  0
ARC
  5
8939
  8
ALPHA
 10
169.460502
 20
111.539091
 30
0.0
 40
5.0
 50
36.842227
 51
38.157773
  0
ARC
  5
893A
  8
ALPHA
 10
173.301892
 20
114.417236
 30
0.0
 40
0.2
 50
313.0
 51
36.842227
  0
ARC
  5
893B
  8
ALPHA
 10
173.234802
 20
114.504671
 30
0.0
 40
0.2
 50
38.157773
 51
122.0
  0
LINE
  5
893C
  8
ALPHA
 10
173.438292
 20
114.270966
 30
0.0
 11
173.301892
 21
114.417236
 31
0.0
  0
LINE
  5
893D
  8
ALPHA
 10
173.095675
 20
113.95147
 30
0.0
 11
172.959275
 21
114.09774
 31
0.0
  0
LINE
  5
893E
  8
ALPHA
 10
173.128818
 20
114.67428
 30
0.0
 11
173.234802
 21
114.504671
 31
0.0
  0
LINE
  5
893F
  8
ALPHA
 10
172.731532
 20
114.426029
 30
0.0
 11
172.837516
 21
114.256419
 31
0.0
  0
LINE
  5
8940
  8
ALPHA
 10
173.438292
 20
114.270966
 30
0.0
 11
173.095675
 21
113.95147
 31
0.0
  0
LINE
  5
8941
  8
ALPHA
 10
173.301892
 20
114.417236
 30
0.0
 11
172.959275
 21
114.09774
 31
0.0
  0
LINE
  5
8942
  8
ALPHA
 10
173.301892
 20
114.417236
 30
0.0
 11
173.46195
 21
114.537159
 31
0.0
  0
LINE
  5
8943
  8
ALPHA
 10
173.392064
 20
114.628237
 30
0.0
 11
173.234802
 21
114.504671
 31
0.0
  0
LINE
  5
8944
  8
ALPHA
 10
172.837516
 20
114.256419
 30
0.0
 11
173.234802
 21
114.504671
 31
0.0
  0
LINE
  5
8945
  8
ALPHA
 10
172.731532
 20
114.426029
 30
0.0
 11
173.128818
 21
114.67428
 31
0.0
  0
LINE
  5
8946
  8
ALPHA
 10
177.460502
 20
102.039091
 30
0.0
 11
177.460502
 21
117.926718
 31
0.0
  0
ARC
  5
8947
  8
ALPHA
 10
175.460502
 20
107.93354
 30
0.0
 40
2.0
 50
328.997281
 51
0.0
  0
ARC
  5
8948
  8
ALPHA
 10
169.460502
 20
88.839091
 30
0.0
 40
31.7
 50
78.34488
 51
101.65512
  0
LINE
  5
8AD3
  8
AXE
 10
169.460502
 20
80.139091
 30
0.0
 11
169.460502
 21
125.539091
 31
0.0
  0
TEXT
  5
8AD4
  8
AXE
 10
164.412883
 20
80.139091
 30
0.0
 40
5.0
  1
Y
 72
     2
 11
168.460502
 21
80.139091
 31
0.0
  0
LINE
  5
8AD5
  8
AXE
 10
156.460502
 20
111.539091
 30
0.0
 11
187.460502
 21
111.539091
 31
0.0
  0
TEXT
  5
8AD6
  8
AXE
 10
183.412883
 20
112.539091
 30
0.0
 40
5.0
  1
X
 72
     2
 11
187.460502
 21
112.539091
 31
0.0
  0
LINE
  5
8B73
  8
COTATION1
 10
121.15771
 20
104.539091
 30
0.0
 11
121.15771
 21
129.498014
 31
0.0
  0
LINE
  5
8B74
  8
COTATION1
 10
113.057358
 20
102.039091
 30
0.0
 11
160.460502
 21
102.039091
 31
0.0
  0
SOLID
  5
8B75
  8
COTATION1
 10
122.601086
 20
102.039091
 30
0.0
 11
119.714335
 21
102.039091
 31
0.0
 12
121.15771
 22
104.539091
 32
0.0
 13
121.15771
 23
104.539091
 33
0.0
  0
LINE
  5
8B76
  8
COTATION1
 10
107.90771
 20
134.498014
 30
0.0
 11
134.40771
 21
134.498014
 31
0.0
  0
LINE
  5
8B77
  8
COTATION1
 10
134.40771
 20
129.498014
 30
0.0
 11
107.90771
 21
129.498014
 31
0.0
  0
TEXT
  5
8B78
  8
COTATION1
 10
109.15771
 20
130.748014
 30
0.0
 40
2.5
  1
PLANE_TO_LINE_UP
 41
0.626087
  7
STANDARD
 72
     5
 11
133.15771
 21
130.748014
 31
0.0
  0
LINE
  5
8B79
  8
COTATION1
 10
134.40771
 20
134.498014
 30
0.0
 11
134.40771
 21
129.498014
 31
0.0
  0
LINE
  5
8B7A
  8
COTATION1
 10
107.90771
 20
129.498014
 30
0.0
 11
107.90771
 21
134.498014
 31
0.0
  0
DIMENSION
  5
8D71
  8
COTATION1
  2
*D5
 10
197.460502
 20
90.139091
 30
0.0
 11
197.460502
 21
105.339091
 31
0.0
 13
169.460502
 23
120.539091
 33
0.0
 14
175.460502
 24
90.139091
 34
0.0
 50
90.0
  0
VIEWPORT
  5
494D
 67
     1
  8
0
 10
4.995325
 20
6.556512
 30
0.0
 40
22.70986
 41
13.988421
 68
    -1
 69
     1
1001
ACAD
1000
MVIEW
1002
{
1070
    16
1010
0.0
1020
0.0
1030
0.0
1010
0.0
1020
0.0
1030
1.0
1040
0.0
1040
13.988421
1040
4.995325
1040
6.556512
1040
50.0
1040
0.0
1040
0.0
1070
     0
1070
   100
1070
     1
1070
     1
1070
     0
1070
     0
1070
     0
1070
     0
1040
0.0
1040
0.0
1040
0.0
1040
10.0
1040
10.0
1040
10.0
1040
10.0
1070
     0
1002
{
1002
}
1002
}
  0
ENDSEC
  0
EOF
